Tags
Language
Tags

National Geographic - (40-45) Batailles Sous Les Mers (2016)

Posted By: ALGEROIS
National Geographic - (40-45) Batailles Sous Les Mers (2016)

National Geographic - (40-45) Batailles Sous Les Mers (2016)
TVRip | 1000x576 | MP4/AVC @ 2355 Kbps, 25.000 fps | 43mn | 797 MB
Audio: French AAC 165 kbps, 2 channels | Subs: None
Genre: Documentary

Décembre 1943. Révoltés par la mort de leur mentor Dudley « Mush » Morton, Richard Hetherington O'Kane et son sous-marin, l'USS Tang partent à l'assaut d'un navire japonais. Le vaillant commandant et les premières patrouilles du Tang parcourent près de 65 000 kilomètres et coulent 17 bateaux, se retrouvant à la première place du classement des meilleurs sous-mariniers des Etats-Unis.

Video
ID : 1
Format : AVC
Format/Info : Advanced Video Codec
Format profile : Main@L3.1
Format settings, CABAC : Yes
Format settings, ReFrames : 1 frame
Codec ID : avc1
Codec ID/Info : Advanced Video Coding
Duration : 43mn 58s
Duration_FirstFrame : 40ms
Bit rate : 2 355 Kbps
Width : 1 000 pixels
Height : 576 pixels
Display aspect ratio : 1.736
Frame rate mode : Constant
Frame rate : 25.000 fps
Color space : YUV
Chroma subsampling : 4:2:0
Bit depth : 8 bits
Scan type : Progressive
Bits/(Pixel*Frame) : 0.164
Stream size : 744 MiB (93%)
Writing library : x264 core 129
Encoding settings : cabac=1 / ref=1 / deblock=1:0:0 / analyse=0x1:0x131 / me=dia / subme=2 / psy=1 / psy_rd=1.00:0.00 / mixed_ref=0 / me_range=16 / chroma_me=1 / trellis=0 / 8x8dct=0 / cqm=0 / deadzone=21,11 / fast_pskip=1 / chroma_qp_offset=0 / threads=4 / lookahead_threads=1 / sliced_threads=0 / nr=0 / decimate=1 / interlaced=0 / bluray_compat=0 / constrained_intra=0 / bframes=0 / weightp=2 / keyint=250 / keyint_min=25 / scenecut=40 / intra_refresh=0 / rc_lookahead=40 / rc=abr / mbtree=1 / bitrate=2355 / ratetol=1.0 / qcomp=0.60 / qpmin=10 / qpmax=51 / qpstep=4 / ip_ratio=1.41 / aq=1:1.00

Audio
ID : 2
Format : AAC
Format/Info : Advanced Audio Codec
Format profile : LC
Codec ID : 40
Duration : 43mn 58s
Duration_FirstFrame : 64ms
Bit rate mode : Variable
Bit rate : 165 Kbps
Maximum bit rate : 192 Kbps
Channel(s) : 2 channels
Channel positions : Front: L R
Sampling rate : 48.0 KHz
Compression mode : Lossy
Stream size : 52.0 MiB (7%)

National Geographic - (40-45) Batailles Sous Les Mers (2016)

National Geographic - (40-45) Batailles Sous Les Mers (2016)

National Geographic - (40-45) Batailles Sous Les Mers (2016)