Filmbuff - 7 Days in Syria (2016)

Posted By: notbanned
1080p (FullHD) / HDTV
Filmbuff - 7 Days in Syria (2016)

Filmbuff - 7 Days in Syria (2016)
HDTV | 1920x1080 | .MP4/AVC @ 4479 Kbps | 1 h 14 min | 2.41 GiB
Audio: English AAC 158 kbps, 2 channels | Subs: English
Genre: Documentary

In the most dangerous country in the world for journalists, Newsweek Middle East editor, Janine di Giovanni, risks it all to bear witness, ensuring that the world knows about the suffering of the Syrian people.

General
Complete name : 7.Days.in.Syria.1080p.mp4
Format : MPEG-4
Format profile : Base Media
Codec ID : isom (isom)
File size : 2.41 GiB
Duration : 1 h 14 min
Overall bit rate mode : Variable
Overall bit rate : 4 639 kb/s

Video
ID : 1
Format : AVC
Format/Info : Advanced Video Codec
Format profile : High@L4.1
Format settings, CABAC : No
Format settings, ReFrames : 1 frame
Format settings, GOP : M=1, N=12
Codec ID : avc1
Codec ID/Info : Advanced Video Coding
Duration : 1 h 14 min
Bit rate : 4 479 kb/s
Maximum bit rate : 34.6 Mb/s
Width : 1 920 pixels
Height : 1 080 pixels
Display aspect ratio : 16:9
Frame rate mode : Constant
Frame rate : 23.976 (24000/1001) FPS
Color space : YUV
Chroma subsampling : 4:2:0
Bit depth : 8 bits
Scan type : Progressive
Bits/(Pixel*Frame) : 0.090
Stream size : 2.33 GiB (97%)
Encoded date : UTC 2019-06-13 18:34:04
Tagged date : UTC 2019-06-15 11:54:18

Audio
ID : 2
Format : AAC
Format/Info : Advanced Audio Codec
Format profile : LC
Codec ID : 40
Duration : 1 h 14 min
Bit rate mode : Variable
Bit rate : 158 kb/s
Maximum bit rate : 233 kb/s
Channel(s) : 2 channels
Channel positions : Front: L R
Sampling rate : 48.0 kHz
Frame rate : 46.875 FPS (1024 spf)
Compression mode : Lossy
Stream size : 83.9 MiB (3%)
Language : English
Encoded date : UTC 2019-06-15 11:53:51
Tagged date : UTC 2019-06-15 11:54:18

Text
ID : 3
Format : Timed Text
Codec ID : tx3g
Duration : 1 h 12 min
Bit rate mode : Variable
Bit rate : 49 b/s
Stream size : 26.3 KiB (0%)
Forced : No
Encoded date : UTC 2019-06-15 11:54:17
Tagged date : UTC 2019-06-15 11:54:18


Screenshots:

Filmbuff - 7 Days in Syria (2016)

Filmbuff - 7 Days in Syria (2016)

Filmbuff - 7 Days in Syria (2016)

Filmbuff - 7 Days in Syria (2016)