Tags
Language
Tags

A Beautiful Planet (2016)

Posted By: Tavaz
1080p (FullHD) / BDRip IMDb
A Beautiful Planet (2016)

A Beautiful Planet (2016)
BDRip | MKV | 1920x1080 | English | H264 @ 8496 kbps | AC-3 @ 640 kbps | 46 min 17 s | 2.95 GiB
Subtitles: English
Genre: Documentary

A breathtaking portrait of Earth from space, providing a unique perspective and increased understanding of our planet and galaxy as never seen before. Made in cooperation with the National Aeronautics and Space Administration (NASA), the film features stunning footage of our magnificent blue planet — and the effects humanity has had on it over time — captured by the astronauts aboard the International Space Station (ISS).

A Beautiful Planet 2016 1080p BluRay x264-DON.mkv (3.0 GB)



General
Unique ID : 222557219383269585222610102505457236206 (0xA76EF618BD0F7FE78ABFCACBF3B2B8EE)
Complete name : ./A Beautiful Planet 2016 1080p BluRay x264-DON.mkv
Format : Matroska
Format version : Version 4 / Version 2
File size : 2.95 GiB
Duration : 46 min 17 s
Overall bit rate : 9 139 kb/s
Movie name : IMAX - A Beautiful Planet (2016)
Encoded date : UTC 2018-12-29 18:34:14
Writing application : mkvmerge v7.9.0 ('Birds') 32bit
Writing library : libebml v1.3.1 + libmatroska v1.4.2

Video
ID : 1
Format : AVC
Format/Info : Advanced Video Codec
Format profile : High@L4.1
Format settings : CABAC / 4 Ref Frames
Format settings, CABAC : Yes
Format settings, RefFrames : 4 frames
Codec ID : V_MPEG4/ISO/AVC
Duration : 46 min 17 s
Bit rate : 8 497 kb/s
Width : 1 920 pixels
Height : 1 080 pixels
Display aspect ratio : 16:9
Frame rate mode : Constant
Frame rate : 23.976 (24000/1001) FPS
Color space : YUV
Chroma subsampling : 4:2:0
Bit depth : 8 bits
Scan type : Progressive
Bits/(Pixel*Frame) : 0.171
Stream size : 2.75 GiB (93%)
Writing library : x264 core 157 r2867+103 0d6443f t_mod_Custom_2 [8-bit@all X86_64]
Encoding settings : cabac=1 / ref=4 / deblock=1:-3:-3 / analyse=0x3:0x133 / me=umh / subme=10 / psy=1 / fade_compensate=0.00 / psy_rd=1.00:0.00 / mixed_ref=1 / me_range=32 / chroma_me=1 / trellis=2 / 8x8dct=1 / cqm=0 / deadzone=21,11 / fast_pskip=0 / chroma_qp_offset=-2 / threads=12 / lookahead_threads=3 / sliced_threads=0 / nr=0 / decimate=0 / interlaced=0 / bluray_compat=0 / constrained_intra=0 / fgo=0 / bframes=10 / b_pyramid=2 / b_adapt=2 / b_bias=0 / direct=3 / weightb=1 / open_gop=0 / weightp=2 / keyint=250 / keyint_min=23 / scenecut=40 / intra_refresh=0 / rc_lookahead=60 / rc=crf / mbtree=0 / crf=16.5000 / qcomp=0.60 / qpmin=0:0:0 / qpmax=69:69:69 / qpstep=4 / vbv_maxrate=62500 / vbv_bufsize=78125 / crf_max=0.0 / nal_hrd=none / filler=0 / ip_ratio=1.40 / pb_ratio=1.30 / aq=3:0.90 / aq-sensitivity=10.00 / aq-factor=1.00:1.00:1.00 / aq2=0 / aq3=0
Language : English
Default : Yes
Forced : No

Audio
ID : 2
Format : AC-3
Format/Info : Audio Coding 3
Format settings, Endianness : Big
Codec ID : A_AC3
Duration : 46 min 17 s
Bit rate mode : Constant
Bit rate : 640 kb/s
Channel(s) : 6 channels
Channel positions : Front: L C R, Side: L R, LFE
Sampling rate : 48.0 kHz
Frame rate : 31.250 FPS (1536 SPF)
Bit depth : 16 bits
Compression mode : Lossy
Stream size : 212 MiB (7%)
Language : English
Service kind : Complete Main
Default : Yes
Forced : No

Text
ID : 3
Format : UTF-8
Codec ID : S_TEXT/UTF8
Codec ID/Info : UTF-8 Plain Text
Duration : 44 min 34 s
Bit rate : 77 b/s
Count of elements : 710
Stream size : 25.3 KiB (0%)
Language : English
Default : No
Forced : No

Menu
00:00:00.000 : en:An Ordinary Galaxy
00:05:37.462 : en:Past, Present & Future
00:16:51.260 : en:Gravity
00:28:30.083 : en:Weightlesness
00:39:35.873 : en:Nuclear Fusion
00:44:24.203 : en:End Credits





A Beautiful Planet (2016)


A Beautiful Planet (2016)


A Beautiful Planet (2016)


A Beautiful Planet (2016)


A Beautiful Planet (2016)