BBC - The Cosmos: A Beginner’s Guide: Complete Set [repost]

Posted By: ParRus
BBC - The Cosmos: A Beginner’s Guide: Complete Set [repost]

BBC - The Cosmos: A Beginner’s Guide: Complete Set
SAT-Rip | English | AVI | 640 x 360 | XviD ~894 Kbps | 29.970 fps
AC-3 | 192 kbps | 48.0 KHz | 2 channels | Subs: English | 6 x 30 mins | 1.3 GB
Genre: Documentary

It’s the story of everything – from the first microseconds of our universe to the exciting future of first contact and homes beyond our Earth. Join Adam Hart-Davis, Janet Sumner and Maggie Aderin for a journey around the planet to discover the latest thinking about the Cosmos.
Episode 01 – Life in the Cosmos
Are we alone or is there other life out there? In this programme we meet the alien hunters, who spend their time tracking down life in the Cosmos. Some of them are looking for incredibly primitive life really close at hand. And others are looking for something you could talk to.

Episode 02 – Building the universe
We reveal all about the universe: how it, and everything in it, came into being and the huge new experiments currently being done to investigate it.

Episode 03 – Seeing the universe
Most of what we know about the universe, from its age to its size to how it began in a Big Bang, has been found out through telescopes. But how far out into space and back into time is it possible to see?

Episode 04 – Space exploration
The human race has harboured a deep fascination for the Cosmos for thousands of years. But the technology to escape the confines of our planet and explore the Solar System has only been with us for fifty years. In this great adventure we’ve sent probes to other worlds, inhabited space stations in Earth orbit and put men on the Moon. But what is happening at the cutting edge of space exploration now?

Episode 05 – Violent universe
Until quite recently the night sky seemed cold and calm and never changing – but not any more. In this programme we’ll show you the dramatic events happening right now, from the edge of the universe to uncomfortably close to home.

Episode 06 – Other worlds
Finding another Earth outside our solar system would be big news – but there are some surprising discoveries in our very own cosmic backyard. We catch up with some amazing findings in our solar system and beyond and unveil the chances of finding another earth and, possibly, life elsewhere in the Cosmos.

General
Complete name : Acorn The Cosmos Disc 1.Title8.DVDRip.avi
Format : AVI
Format/Info : Audio Video Interleave
File size : 229 MiB
Duration : 29mn 10s
Overall bit rate : 1 098 Kbps
Movie name : Acorn The Cosmos Disc 1.Title8.DVDRip
Director : HP_USER
Writing application : Lavf51.10.0
Original source form/Name : Acorn The Cosmos Disc 1
Video #0
ID : 0
Format : MPEG-4 Visual
Format profile : Simple@L3
Format settings, BVOP : No
Format settings, QPel : No
Format settings, GMC : No warppoints
Format settings, Matrix : Default (H.263)
Codec ID : XVID
Codec ID/Hint : XviD
Duration : 29mn 10s
Bit rate : 894 Kbps
Width : 640 pixels
Height : 360 pixels
Display aspect ratio : 16:9
Frame rate : 29.970 fps
Color space : YUV
Chroma subsampling : 4:2:0
Bit depth : 8 bits
Scan type : Progressive
Compression mode : Lossy
Bits/(Pixel*Frame) : 0.129
Stream size : 186 MiB (81%)
Writing library : XviD 1.1.2 (UTC 2006-11-01)
Audio #1
ID : 1
Format : AC-3
Format/Info : Audio Coding 3
Mode extension : CM (complete main)
Codec ID : 2000
Duration : 29mn 9s
Bit rate mode : Constant
Bit rate : 192 Kbps
Channel(s) : 2 channels
Channel positions : Front: L R
Sampling rate : 48.0 KHz
Bit depth : 16 bits
Compression mode : Lossy
Stream size : 40.0 MiB (17%)
Alignment : Aligned on interleaves
Interleave, duration : 32 ms (0.96 video frame)

ScreenShots

BBC - The Cosmos: A Beginner’s Guide: Complete Set [repost]

BBC - The Cosmos: A Beginner’s Guide: Complete Set [repost]

BBC - The Cosmos: A Beginner’s Guide: Complete Set [repost]

BBC - The Cosmos: A Beginner’s Guide: Complete Set [repost]

For more, Visit my AH-blog

no mirrors please, Follow The Rules