Tags
Language
Tags

A Beautiful Planet (2016)

Posted By: Without
1080p (FullHD) / BluRay Remux IMDb
A Beautiful Planet (2016)

A Beautiful Planet (2016)
BD-Remux | MKV | 1920x1080 | AVC@24.7 Mb/s | English DTS-HD MA@4112 kb/s (8 ch)
Subs: English, French, Spanish | 46 min 17 s | 9.33 GB
Genre: Documentary

An exploration of Earth and beyond as seen from the International Space Station. Narrated by Jennifer Lawrence.

IMDB - 1 win & 1 nomination.


General
A.Beautiful.Planet.2016.BluRay.Remux.1080p.AVC.DTS.X.7.1-BMF.mkv
Format : Matroska
Format version : Version 4 / Version 2
File size : 9.33 GiB
Duration : 46 min 17 s
Overall bit rate mode : Variable
Overall bit rate : 28.8 Mb/s
Movie name : A.Beautiful.Planet.2016.BluRay.Remux.1080p.AVC.DTS.X.7.1-BMF
Encoded date : UTC 2018-12-26 19:37:30
Writing application : mkvmerge v29.0.0 ('Like It Or Not') 64-bit
Writing library : libebml v1.3.6 + libmatroska v1.4.9

Video
ID : 1
Format : AVC
Format/Info : Advanced Video Codec
Format profile : High@L4.1
Format settings, CABAC : Yes
Format settings, ReFrames : 4 frames
Codec ID : V_MPEG4/ISO/AVC
Duration : 46 min 17 s
Bit rate mode : Variable
Bit rate : 24.7 Mb/s
Maximum bit rate : 30.0 Mb/s
Width : 1 920 pixels
Height : 1 080 pixels
Display aspect ratio : 16:9
Frame rate mode : Constant
Frame rate : 23.976 (24000/1001) FPS
Color space : YUV
Chroma subsampling : 4:2:0
Bit depth : 8 bits
Scan type : Progressive
Bits/(Pixel*Frame) : 0.496
Stream size : 7.98 GiB (86%)
Title : MPEG-4 AVC Video / 24996 kbps / 1080p / 23.976 fps / 16:9 / High Profile 4.1
Default : Yes
Forced : No

Audio
ID : 2
Format : DTS
Format/Info : Digital Theater Systems
Format profile : MA / Core
Mode : 16
Format settings, Endianness : Big
Codec ID : A_DTS
Duration : 46 min 17 s
Bit rate mode : Variable / Constant
Bit rate : 4 112 kb/s / 1 509 kb/s
Channel(s) : 8 channels / 6 channels
Channel positions : Front: L C R, Side: L R, Back: L R, LFE / Front: L C R, Side: L R, LFE
Sampling rate : 48.0 kHz
Frame rate : 93.750 FPS (512 spf)
Bit depth : 24 bits
Compression mode : Lossless / Lossy
Stream size : 1.33 GiB (14%)
Title : DTS:X/DTS-HD Master Audio / 7.1-X / 48 kHz / 4112 kbps / 24-bit
Language : English
Default : Yes
Forced : No

Text #1
ID : 3
Format : PGS
Muxing mode : zlib
Codec ID : S_HDMV/PGS
Codec ID/Info : Picture based subtitle format used on BDs/HD-DVDs
Duration : 46 min 8 s
Bit rate : 38.6 kb/s
Count of elements : 1472
Stream size : 12.7 MiB (0%)
Title : SDH
Language : English
Default : No
Forced : No

Text #2
ID : 4
Format : PGS
Muxing mode : zlib
Codec ID : S_HDMV/PGS
Codec ID/Info : Picture based subtitle format used on BDs/HD-DVDs
Duration : 44 min 34 s
Bit rate : 44.4 kb/s
Count of elements : 1572
Stream size : 14.2 MiB (0%)
Language : French
Default : No
Forced : No

Text #3
ID : 5
Format : PGS
Muxing mode : zlib
Codec ID : S_HDMV/PGS
Codec ID/Info : Picture based subtitle format used on BDs/HD-DVDs
Duration : 44 min 35 s
Bit rate : 39.7 kb/s
Count of elements : 1412
Stream size : 12.7 MiB (0%)
Language : Spanish
Default : No
Forced : No

Menu
00:00:00.000 : :An Ordinary Galaxy
00:05:37.462 : :Past, Present & Future
00:16:51.260 : :Gravity
00:28:30.083 : :Weightlessness
00:39:35.873 : :Nuclear Fusion
00:44:24.203 : :End Credits



Screenshots

A Beautiful Planet (2016)

A Beautiful Planet (2016)

A Beautiful Planet (2016)

A Beautiful Planet (2016)

A Beautiful Planet (2016)

A Beautiful Planet (2016)

A Beautiful Planet (2016)


Come Visit My Blog (•‿•)