ABC - Bossa Nova - The Sound That Seduced The World (2008)

Posted By: notbanned
ABC - Bossa Nova - The Sound That Seduced The World (2008)

ABC - Bossa Nova - The Sound That Seduced The World (2008)
DVDRip | 720x400 | .AVI/DivX @ 2051 Kbps | 54min 48s | 896 MiB
Audio: English AC3 224 kbps, 2 channels | Subs: None
Genre: Documentary

Built on layers of samba rhythms, classical and jazz guitar and poetic lyricism, the sultry Bossa Nova sound was spawned in the beaches and bars of Rio, Brazil in the late 50s, and soon dominated the world's clubs and lounge rooms when anthems like "The Girl from Ipanema" became huge international hits. These seductive songs of love by the ocean are celebrated in this compelling documentary - first aired on ABC TV and filmed on location around Rio - that features interviews with giants of the genre including Marcos Valle, Carlos Lyra and Sergio Mendes, whose Brazil '66 (and the song "Mas Que Nada") took the Bossa beat to new heights in the late 60s and 70s. Rare live clips of Bossa pioneers Joao and Astrud Gilberto revive the beauty, depth and timeless legacy of the sound that seduced the world.


General
Complete name : ABC.Bossa.Nova.The.Sound.That.Seduced.The.World.avi
Format : AVI
Format/Info : Audio Video Interleave
File size : 896 MiB
Duration : 54 min 48 s
Overall bit rate : 2 285 kb/s

Video
ID : 0
Format : MPEG-4 Visual
Format profile : Advanced Simple@L5
Format settings, BVOP : 1
Format settings, QPel : No
Format settings, GMC : No warppoints
Format settings, Matrix : Default (MPEG)
Codec ID : DX50
Codec ID/Hint : DivX 5
Duration : 54 min 48 s
Bit rate : 2 051 kb/s
Width : 720 pixels
Height : 400 pixels
Display aspect ratio : 16:9
Frame rate : 25.000 FPS
Color space : YUV
Chroma subsampling : 4:2:0
Bit depth : 8 bits
Scan type : Progressive
Compression mode : Lossy
Bits/(Pixel*Frame) : 0.285
Stream size : 804 MiB (90%)
Writing library : XviD 1.2.1 (UTC 2008-12-04)

Audio
ID : 1
Format : AC-3
Format/Info : Audio Coding 3
Format settings, Endianness : Big
Codec ID : 2000
Duration : 54 min 48 s
Source duration : 54 min 48 s
Bit rate mode : Constant
Bit rate : 224 kb/s
Channel(s) : 2 channels
Channel positions : Front: L R
Sampling rate : 48.0 kHz
Frame rate : 31.250 FPS (1536 spf)
Bit depth : 16 bits
Compression mode : Lossy
Stream size : 87.8 MiB (10%)
Alignment : Aligned on interleaves
Interleave, duration : 40 ms (1.00 video frame)
Service kind : Complete Main


Screenshots:

ABC - Bossa Nova - The Sound That Seduced The World (2008)

ABC - Bossa Nova - The Sound That Seduced The World (2008)

ABC - Bossa Nova - The Sound That Seduced The World (2008)

ABC - Bossa Nova - The Sound That Seduced The World (2008)