Tags
Language
Tags

A Beautiful Planet (2016)

Posted By: RSU75
1080p (FullHD) / BDRip IMDb
A Beautiful Planet (2016)

A Beautiful Planet (2016)
BDRip | MKV | AVC, 1920x1080, ~ 4.1 Mbps | 0hr 46mn | 2.75 GB
English: DTS, 6 ch, 1510 kbps; French (Français): DTS, 6 ch, 1510 kbps; Spanish (Español): DTS, 6 ch, 1510 kbps
BDRip | MKV | AVC, 1280x720, ~ 3.0 Mbps | 0hr 46mn | 1.38 MB
English: AC3, 6 ch, 448 kbps; French (Français): AC3, 6 ch, 448 kbps; Spanish (Español): AC3, 6 ch, 448 kbps
Subtitles: English, French, Spanish
Genre: Documentary



Director: Toni Myers
Writers: Toni Myers
Stars: Jennifer Lawrence, Samantha Cristoforetti, Scott Kelly

An exploration of Earth and beyond as seen from the International Space Station. Narrated by Jennifer Lawrence.

Extras:
- None




General
Unique ID : 254706958398886208649636432797998338172 (0xBF9EC69C4C553B2DB31941A5A49D507C)
Complete name : F:\ABeautifulPlanet.2016.1p\ABeautifulPlanet.2016.1p.mkv
Format : Matroska
Format version : Version 4
File size : 2.75 GiB
Duration : 46 min 17 s
Overall bit rate : 8 499 kb/s
Movie name : Release RSU75
Encoded date : UTC 2021-01-26 18:57:39
Writing application : mkvmerge v8.3.0 ('Over the Horizon') 64bit
Writing library : libebml v1.3.1 + libmatroska v1.4.2

Video
ID : 1
Format : AVC
Format/Info : Advanced Video Codec
Format profile : High@L4.1
Format settings : CABAC / 4 Ref Frames
Format settings, CABAC : Yes
Format settings, Reference fra : 4 frames
Codec ID : V_MPEG4/ISO/AVC
Duration : 46 min 17 s
Bit rate : 4 100 kb/s
Width : 1 920 pixels
Height : 1 080 pixels
Display aspect ratio : 16:9
Frame rate mode : Constant
Frame rate : 23.976 (23976/1000) FPS
Color space : YUV
Chroma subsampling : 4:2:0
Bit depth : 8 bits
Scan type : Progressive
Bits/(Pixel*Frame) : 0.082
Stream size : 1.26 GiB (46%)
Writing library : x264 core 148 r2643 5c65704
Encoding settings : cabac=1 / ref=4 / deblock=1:0:0 / analyse=0x3:0x113 / me=umh / subme=8 / psy=1 / psy_rd=1.00:0.00 / mixed_ref=1 / me_range=24 / chroma_me=1 / trellis=1 / 8x8dct=1 / cqm=0 / deadzone=21,11 / fast_pskip=1 / chroma_qp_offset=-2 / threads=3 / lookahead_threads=1 / sliced_threads=0 / nr=0 / decimate=1 / interlaced=0 / bluray_compat=0 / constrained_intra=0 / bframes=3 / b_pyramid=0 / b_adapt=2 / b_bias=0 / direct=3 / weightb=1 / open_gop=0 / weightp=2 / keyint=250 / keyint_min=25 / scenecut=40 / intra_refresh=0 / rc_lookahead=40 / rc=abr / mbtree=1 / bitrate=4100 / ratetol=1.0 / qcomp=0.60 / qpmin=10 / qpmax=51 / qpstep=4 / ip_ratio=1.41 / aq=1:1.00
Language : English
Default : Yes
Forced : No

Audio #1
ID : 2
Format : DTS
Format/Info : Digital Theater Systems
Codec ID : A_DTS
Duration : 46 min 17 s
Bit rate mode : Constant
Bit rate : 1 509 kb/s
Channel(s) : 6 channels
Channel layout : C L R Ls Rs LFE
Sampling rate : 48.0 kHz
Frame rate : 93.750 FPS (512 SPF)
Bit depth : 24 bits
Compression mode : Lossy
Stream size : 500 MiB (18%)
Title : Surround 5.1
Language : English
Default : Yes
Forced : No

Audio #2
ID : 3
Format : DTS
Format/Info : Digital Theater Systems
Codec ID : A_DTS
Duration : 46 min 17 s
Bit rate mode : Constant
Bit rate : 1 509 kb/s
Channel(s) : 6 channels
Channel layout : C L R Ls Rs LFE
Sampling rate : 48.0 kHz
Frame rate : 93.750 FPS (512 SPF)
Bit depth : 24 bits
Compression mode : Lossy
Stream size : 500 MiB (18%)
Title : Surround 5.1
Language : French
Default : No
Forced : No

Audio #3
ID : 4
Format : DTS
Format/Info : Digital Theater Systems
Codec ID : A_DTS
Duration : 46 min 17 s
Bit rate mode : Constant
Bit rate : 1 509 kb/s
Channel(s) : 6 channels
Channel layout : C L R Ls Rs LFE
Sampling rate : 48.0 kHz
Frame rate : 93.750 FPS (512 SPF)
Bit depth : 24 bits
Compression mode : Lossy
Stream size : 500 MiB (18%)
Title : Surround 5.1
Language : Spanish
Default : No
Forced : No

Text #1
ID : 5
Format : PGS
Muxing mode : zlib
Codec ID : S_HDMV/PGS
Codec ID/Info : Picture based subtitle format used on BDs/HD-DVDs
Duration : 46 min 8 s
Bit rate : 17.9 kb/s
Count of elements : 1472
Stream size : 5.90 MiB (0%)
Language : English
Default : No
Forced : No

Text #2
ID : 6
Format : PGS
Muxing mode : zlib
Codec ID : S_HDMV/PGS
Codec ID/Info : Picture based subtitle format used on BDs/HD-DVDs
Duration : 44 min 34 s
Bit rate : 20.5 kb/s
Count of elements : 1572
Stream size : 6.54 MiB (0%)
Language : French
Default : No
Forced : No

Text #3
ID : 7
Format : PGS
Muxing mode : zlib
Codec ID : S_HDMV/PGS
Codec ID/Info : Picture based subtitle format used on BDs/HD-DVDs
Duration : 44 min 35 s
Bit rate : 18.5 kb/s
Count of elements : 1412
Stream size : 5.90 MiB (0%)
Language : Spanish
Default : No
Forced : No

Menu
00:00:00.000 : en:Chapter 01
00:05:37.462 : en:Chapter 02
00:16:51.260 : en:Chapter 03
00:28:30.083 : en:Chapter 04
00:39:35.873 : en:Chapter 05
00:44:24.203 : en:Chapter 06






General
Unique ID : 173059290223325305313854468978332538191 (0x823201C57ACA6B6BAC2CF49E17FE154F)
Complete name : F:\ABeautifulPlanet.2016.7p\ABeautifulPlanet.2016.7p.mkv
Format : Matroska
Format version : Version 4
File size : 1.38 GiB
Duration : 46 min 17 s
Overall bit rate : 4 254 kb/s
Movie name : Release RSU75
Encoded date : UTC 2021-01-26 19:40:19
Writing application : mkvmerge v8.3.0 ('Over the Horizon') 64bit
Writing library : libebml v1.3.1 + libmatroska v1.4.2

Video
ID : 1
Format : AVC
Format/Info : Advanced Video Codec
Format profile : High@L4.1
Format settings : CABAC / 4 Ref Frames
Format settings, CABAC : Yes
Format settings, Reference fra : 4 frames
Codec ID : V_MPEG4/ISO/AVC
Duration : 46 min 17 s
Bit rate : 2 852 kb/s
Nominal bit rate : 3 000 kb/s
Width : 1 280 pixels
Height : 720 pixels
Display aspect ratio : 16:9
Frame rate mode : Constant
Frame rate : 23.976 (23976/1000) FPS
Color space : YUV
Chroma subsampling : 4:2:0
Bit depth : 8 bits
Scan type : Progressive
Bits/(Pixel*Frame) : 0.129
Stream size : 944 MiB (67%)
Writing library : x264 core 148 r2643 5c65704
Encoding settings : cabac=1 / ref=4 / deblock=1:0:0 / analyse=0x3:0x113 / me=umh / subme=8 / psy=1 / psy_rd=1.00:0.00 / mixed_ref=1 / me_range=24 / chroma_me=1 / trellis=1 / 8x8dct=1 / cqm=0 / deadzone=21,11 / fast_pskip=1 / chroma_qp_offset=-2 / threads=3 / lookahead_threads=1 / sliced_threads=0 / nr=0 / decimate=1 / interlaced=0 / bluray_compat=0 / constrained_intra=0 / bframes=3 / b_pyramid=0 / b_adapt=2 / b_bias=0 / direct=3 / weightb=1 / open_gop=0 / weightp=2 / keyint=250 / keyint_min=25 / scenecut=40 / intra_refresh=0 / rc_lookahead=40 / rc=abr / mbtree=1 / bitrate=3000 / ratetol=1.0 / qcomp=0.60 / qpmin=10 / qpmax=51 / qpstep=4 / ip_ratio=1.41 / aq=1:1.00
Language : English
Default : Yes
Forced : No

Audio #1
ID : 2
Format : AC-3
Format/Info : Audio Coding 3
Commercial name : Dolby Digital
Codec ID : A_AC3
Duration : 46 min 17 s
Bit rate mode : Constant
Bit rate : 448 kb/s
Channel(s) : 6 channels
Channel layout : L R C LFE Ls Rs
Sampling rate : 48.0 kHz
Frame rate : 31.250 FPS (1536 SPF)
Compression mode : Lossy
Stream size : 148 MiB (11%)
Title : Surround 5.1
Language : English
Service kind : Complete Main
Default : Yes
Forced : No

Audio #2
ID : 3
Format : AC-3
Format/Info : Audio Coding 3
Commercial name : Dolby Digital
Codec ID : A_AC3
Duration : 46 min 17 s
Bit rate mode : Constant
Bit rate : 448 kb/s
Channel(s) : 6 channels
Channel layout : L R C LFE Ls Rs
Sampling rate : 48.0 kHz
Frame rate : 31.250 FPS (1536 SPF)
Compression mode : Lossy
Stream size : 148 MiB (11%)
Title : Surround 5.1
Language : French
Service kind : Complete Main
Default : No
Forced : No

Audio #3
ID : 4
Format : AC-3
Format/Info : Audio Coding 3
Commercial name : Dolby Digital
Codec ID : A_AC3
Duration : 46 min 17 s
Bit rate mode : Constant
Bit rate : 448 kb/s
Channel(s) : 6 channels
Channel layout : L R C LFE Ls Rs
Sampling rate : 48.0 kHz
Frame rate : 31.250 FPS (1536 SPF)
Compression mode : Lossy
Stream size : 148 MiB (11%)
Title : Surround 5.1
Language : Spanish
Service kind : Complete Main
Default : No
Forced : No

Text #1
ID : 5
Format : PGS
Muxing mode : zlib
Codec ID : S_HDMV/PGS
Codec ID/Info : Picture based subtitle format used on BDs/HD-DVDs
Duration : 46 min 8 s
Bit rate : 17.9 kb/s
Count of elements : 1472
Stream size : 5.90 MiB (0%)
Language : English
Default : Yes
Forced : No

Text #2
ID : 6
Format : PGS
Muxing mode : zlib
Codec ID : S_HDMV/PGS
Codec ID/Info : Picture based subtitle format used on BDs/HD-DVDs
Duration : 44 min 34 s
Bit rate : 20.5 kb/s
Count of elements : 1572
Stream size : 6.54 MiB (0%)
Language : French
Default : No
Forced : No

Text #3
ID : 7
Format : PGS
Muxing mode : zlib
Codec ID : S_HDMV/PGS
Codec ID/Info : Picture based subtitle format used on BDs/HD-DVDs
Duration : 44 min 35 s
Bit rate : 18.5 kb/s
Count of elements : 1412
Stream size : 5.90 MiB (0%)
Language : Spanish
Default : No
Forced : No

Menu
00:00:00.000 : en:Chapter 01
00:05:37.462 : en:Chapter 02
00:16:51.260 : en:Chapter 03
00:28:30.083 : en:Chapter 04
00:39:35.873 : en:Chapter 05
00:44:24.203 : en:Chapter 06




Screenshots 1080p (click to enlarge to original size):

A Beautiful Planet (2016)

A Beautiful Planet (2016)

A Beautiful Planet (2016)



Screenshots 720p (click to enlarge to original size):

A Beautiful Planet (2016)






More in My Blog



If you like this release please visit my blog
In it you will find releases of Documentary