Tags
Language
Tags

A Beautiful Planet (2016) [4K, Ultra HD]

Posted By: Without
2160p (4k UHD) / BluRay Remux IMDb
A Beautiful Planet (2016) [4K, Ultra HD]

A Beautiful Planet (2016)
4K UHD Remux | MKV | 3840x2160 | HEVC@45.6 Mb/s | English DTS-HD MA@7848 kb/s Kbps (8 ch)
Subs: English, French, Spanish | 46 min 17 s | 17.3 GB
Genre: Documentary

An exploration of Earth and beyond as seen from the International Space Station. Narrated by Jennifer Lawrence.

IMDB - 1 win & 1 nomination.


General
A.Beautiful.Planet.2016.2160p.UHD.BluRay.REMUX.HDR.HEVC.DTS-X-EPSiLON.mkv
Format : Matroska
Format version : Version 4 / Version 2
File size : 17.3 GiB
Duration : 46 min 17 s
Overall bit rate : 53.6 Mb/s
Encoded date : UTC 2018-12-23 16:18:57
Writing application : mkvmerge v29.0.0 ('Like It Or Not') 64-bit
Writing library : libebml v1.3.6 + libmatroska v1.4.9

Video
ID : 1
Format : HEVC
Format/Info : High Efficiency Video Coding
Format profile : Main 10@L5.1@High
Codec ID : V_MPEGH/ISO/HEVC
Duration : 46 min 17 s
Bit rate : 45.6 Mb/s
Width : 3 840 pixels
Height : 2 160 pixels
Display aspect ratio : 16:9
Frame rate mode : Constant
Frame rate : 23.976 (24000/1001) FPS
Color space : YUV
Chroma subsampling : 4:2:0 (Type 2)
Bit depth : 10 bits
Bits/(Pixel*Frame) : 0.229
Stream size : 14.8 GiB (85%)
Title : MPEG-H HEVC Video / 45627 kbps / 2160p / 23.976 fps / 16:9 / Main 10 Profile 5.1 High / HDR / BT.2020
Language : English
Default : Yes
Forced : No
Color range : Limited
Color primaries : BT.2020
Transfer characteristics : SMPTE ST 2084
Matrix coefficients : BT.2020 non-constant
Mastering display color primaries : R: x=0.708000 y=0.291980, G: x=0.170000 y=0.797000, B: x=0.131000 y=0.046000, White point: x=0.312680 y=0.329000
Mastering display luminance : min: 0.0000 cd/m2, max: 1000.0000 cd/m2
Maximum Content Light Level : 2279 cd/m2
Maximum Frame-Average Light Level : 256 cd/m2

Audio
ID : 2
Format : DTS
Format/Info : Digital Theater Systems
Format profile : MA / Core
Mode : 16
Format settings, Endianness : Big
Codec ID : A_DTS
Duration : 46 min 17 s
Bit rate mode : Variable / Constant
Bit rate : 7 848 kb/s / 1 509 kb/s
Channel(s) : 8 channels / 6 channels
Channel positions : Front: L C R, Side: L R, Back: L R, LFE / Front: L C R, Side: L R, LFE
Sampling rate : 48.0 kHz
Frame rate : 93.750 FPS (512 spf)
Bit depth : 24 bits
Compression mode : Lossless / Lossy
Stream size : 2.54 GiB (15%)
Title : DTS:X/DTS-HD Master Audio / 7.1-X / 48 kHz / 7848 kbps / 24-bit
Language : English
Default : Yes
Forced : No

Text #1
ID : 3
Format : PGS
Codec ID : S_HDMV/PGS
Codec ID/Info : Picture based subtitle format used on BDs/HD-DVDs
Duration : 46 min 8 s
Bit rate : 38.7 kb/s
Count of elements : 1474
Stream size : 12.8 MiB (0%)
Title : SDH
Language : English
Default : No
Forced : No

Text #2
ID : 4
Format : PGS
Codec ID : S_HDMV/PGS
Codec ID/Info : Picture based subtitle format used on BDs/HD-DVDs
Duration : 44 min 34 s
Bit rate : 44.5 kb/s
Count of elements : 1573
Stream size : 14.2 MiB (0%)
Language : French
Default : No
Forced : No

Text #3
ID : 5
Format : PGS
Codec ID : S_HDMV/PGS
Codec ID/Info : Picture based subtitle format used on BDs/HD-DVDs
Duration : 44 min 35 s
Bit rate : 39.7 kb/s
Count of elements : 1413
Stream size : 12.7 MiB (0%)
Title : Latin American
Language : Spanish
Default : No
Forced : No

Menu
00:00:00.000 : en:An Ordinary Galaxy
00:05:37.462 : en:Past, Present & Future
00:16:51.260 : en:Gravity
00:28:30.083 : en:Weightlessness
00:39:35.873 : en:Nuclear Fusion
00:44:24.203 : en:End Credits



Screenshots

A Beautiful Planet (2016) [4K, Ultra HD]

A Beautiful Planet (2016) [4K, Ultra HD]

A Beautiful Planet (2016) [4K, Ultra HD]

A Beautiful Planet (2016) [4K, Ultra HD]

A Beautiful Planet (2016) [4K, Ultra HD]

A Beautiful Planet (2016) [4K, Ultra HD]

A Beautiful Planet (2016) [4K, Ultra HD]


Come Visit My Blog (•‿•)