Subcategories

National Geographic - Access 360 World Heritage: Series 1 (2016)

Posted By: Tutorial
National Geographic - Access 360 World Heritage: Series 1 (2016)

National Geographic - Access 360 World Heritage: Series 1 (2016)
1080p BluRay | 1920 x 1080 | .MP4/AVC @ 8276 Kbps | 9x~48mn | 24.9 GB
Audio 1: English AAC 160 Kbps, 2 channels | Audio 2: English AC-3 384 Kbps, 2 channels
Genre: Documentary

What does it take to safeguard the world's most famous places? How do you maintain buildings that are thousands of years old? How do you secure a historical structure that contains millions of dollars worth of artefacts? In this new series, we take you on an exclusive, all-access tour behind the scenes of select UNESCO World Heritage sites to illuminate the work that goes into running and maintaining these treasured monuments, buildings, national parks and even entire cities, ensuring that they survive in the best possible conditions for future generations to enjoy.
Part 1: The Amazon
There's a special place in the heart of the Amazon rainforest with ecosystems so unique and biodiversity so rich the UN have declared it a World Heritage Site. But the threats of climate change are looming. If nobody takes action this pristine wilderness could wither in decades and the effects would be devastating, not only here but across the planet. Now a team of four courageous people have devoted their lives to the protection of this corner of rainforest. Braving an unforgiving jungle and extreme weather, they give us 360 access into the challenges, the setbacks and the successes of their everyday work.

Part 2: Taj Mahal
Could the Taj Mahal, one of the World's Seven Wonders, be in imminent danger? It is one of the grandest works of architecture on the planet. But these days, it has plenty of critics. They insist that this monument to undying love is at risk of collapsing into the river that runs beside it. The conservators who know it best dispute the claims. We follow the controversy as two scientific groups examine the Taj's stability. The 360-year-old monument is under serious pressure from the effects of climate change, pollution and mass tourism. After the Mumbai attacks, security is also a serious concern. But could the Taj collapse?

Part 3: Kyoto
A threat looms over Kyoto, Japan's cultural center and a city with one of the most World Heritage sites in the world. Rapid modernization has decimated its traditional cityscape and threatens age-old cultural practices. Now, a team of warriors from various walks of life battle to preserve Kyoto's essence in the face of inevitable change. Gain 360 access to the world behind the monuments, where the traditional and modern come head to head and less-than-orthodox methods are being tested in the effort to safeguard Kyoto's traditional identity.

Part 4: Statue of Liberty
Once she provided hope to millions of immigrants, now the Statue of Liberty is closed to the public, on security lock-down since 9/11. A team of caretakers and construction crew has just 5 months to make this World Heritage Site safe before her doors are reopened.
A gift to the United States from France and now a World Heritage Site, the Statue of Liberty is an international emblem of freedom and liberty. But over the past decade she’s been off-limits, considered unsafe in a post-9/11 world. U-S Park Service and construction crews are now laboring to re-open this iconic statue..

Part 5: Kilimanjaro
A passionate team of Tanzanians brave savannah, mountain and skies in a mission to uncover the mystery behind the demise of Mount Kilimanjaro.

Part 6: Cappadocia
Follow the Director of Museums of Cappadocia as he battles both man-made and natural erosion to protect the geological wonderland in Central Turkey.

Part 7: Borobudur
Borobudur is the largest Buddhist monument in the world. After being abandoned for nearly 1,000 years, this ancient Indonesian structure from around the eighth century now attracts more than 2 million visitors a year. We'll meet the restoration and maintenance teams trying to repair this World Heritage site before tourism, natural elements or a nearby volcano destroy it completely.

Part 8: Great Barrier Reef
A team of conservationists reveals its efforts to protect the Great Barrier Reef, as the home to one of the largest ranges of marine life on Earth faces mounting threats.

Part 9: Palace of Versailles
Behind the facade of the Palace of Versailles, discover how experts and curators continue to keep the building, built for French royalty, fit for a king. Beneath the lavish embroidery, gleaming gold, and priceless works of art, the Palace Of Versailles is in a constant battle against the ravages of time to retain its brilliance for future generations.

General
Complete name : Access.360.World.Heritage.1of9.The.Amazon.mp4
Format : MPEG-4
Format profile : Base Media / Version 2
Codec ID : mp42
File size : 2.91 GiB
Duration : 48mn 0s
Overall bit rate mode : Variable
Overall bit rate : 8 667 Kbps
Encoded date : UTC 2017-03-04 14:47:52
Tagged date : UTC 2017-03-04 14:47:52
Writing application : HandBrake 0.10.5 2016021100

Video
ID : 1
Format : AVC
Format/Info : Advanced Video Codec
Format profile : High@L4.1
Format settings, CABAC : Yes
Format settings, ReFrames : 4 frames
Codec ID : avc1
Codec ID/Info : Advanced Video Coding
Duration : 48mn 0s
Bit rate : 8 276 Kbps
Width : 1 920 pixels
Height : 1 080 pixels
Display aspect ratio : 16:9
Frame rate mode : Constant
Frame rate : 25.000 fps
Color space : YUV
Chroma subsampling : 4:2:0
Bit depth : 8 bits
Scan type : Progressive
Bits/(Pixel*Frame) : 0.160
Stream size : 2.78 GiB (95%)
Writing library : x264 core 142 r2479 dd79a61
Encoding settings : cabac=1 / ref=1 / deblock=1:0:0 / analyse=0x3:0x113 / me=hex / subme=2 / psy=1 / psy_rd=1.00:0.00 / mixed_ref=0 / me_range=16 / chroma_me=1 / trellis=0 / 8x8dct=1 / cqm=0 / deadzone=21,11 / fast_pskip=1 / chroma_qp_offset=0 / threads=6 / lookahead_threads=2 / sliced_threads=0 / nr=0 / decimate=1 / interlaced=0 / bluray_compat=0 / constrained_intra=0 / bframes=3 / b_pyramid=2 / b_adapt=1 / b_bias=0 / direct=1 / weightb=1 / open_gop=0 / weightp=1 / keyint=250 / keyint_min=25 / scenecut=40 / intra_refresh=0 / rc_lookahead=10 / rc=crf / mbtree=1 / crf=21.0 / qcomp=0.60 / qpmin=0 / qpmax=69 / qpstep=4 / vbv_maxrate=62500 / vbv_bufsize=78125 / crf_max=0.0 / nal_hrd=none / filler=0 / ip_ratio=1.40 / aq=1:1.00
Encoded date : UTC 2017-03-04 14:47:52
Tagged date : UTC 2017-03-04 14:47:52
Color primaries : BT.709-5, BT.1361, IEC 61966-2-4, SMPTE RP177
Transfer characteristics : BT.709-5, BT.1361
Matrix coefficients : BT.709-5, BT.1361, IEC 61966-2-4 709, SMPTE RP177

Audio #1
ID : 2
Format : AAC
Format/Info : Advanced Audio Codec
Format profile : LC
Codec ID : 40
Duration : 48mn 0s
Bit rate mode : Variable
Bit rate : 160 Kbps
Channel(s) : 2 channels
Channel positions : Front: L R
Sampling rate : 48.0 KHz
Compression mode : Lossy
Stream size : 55.0 MiB (2%)
Title : Stereo
Encoded date : UTC 2017-03-04 14:47:52
Tagged date : UTC 2017-03-04 14:47:52

Audio #2
ID : 3
Format : AC-3
Format/Info : Audio Coding 3
Mode extension : CM (complete main)
Codec ID : ac-3
Duration : 48mn 0s
Bit rate mode : Constant
Bit rate : 224 Kbps
Channel(s) : 2 channels
Channel positions : Front: L R
Sampling rate : 48.0 KHz
Bit depth : 16 bits
Compression mode : Lossy
Stream size : 76.9 MiB (3%)
Title : Stereo
Encoded date : UTC 2017-03-04 14:47:52
Tagged date : UTC 2017-03-04 14:47:52
Screenshots

National Geographic - Access 360 World Heritage: Series 1 (2016)

National Geographic - Access 360 World Heritage: Series 1 (2016)

National Geographic - Access 360 World Heritage: Series 1 (2016)

Welcome to my blog - daily update!

National Geographic - Access 360 World Heritage: Series 1 (2016)