Al-Jazeera - The Disappeared of Syria (2016)

Posted By: notbanned
Al-Jazeera - The Disappeared of Syria (2016)

Al-Jazeera - The Disappeared of Syria (2016)
HDTV | 1280x664 | .MKV/AVC @ 2047 Kbps | 46min 6s | 697 MiB
Audio: English AAC 64 kbps, 2 channels | Subs: None
Genre: Documentary

A look at the invisible weapon of Bashar al-Assad's regime: the kidnapping and torture of tens of thousands of Syrians. When Syrians first protested in the Spring of 2011, their only weapons were banners and songs and a deep desire for freedom. Syria has been ruled by a strong, strict and often merciless regime, handed down from father to son since 1970. "We, the old guard, couldn't believe it. Protests like that? In the state of Hafez al-Assad? In Syria? For the old guard, it was impossible. Forty-five years of rule had brainwashed us. When the revolution began, our orders were to shoot," says Munir al-Hariri, a former member of the Syrian intelligence service.


General
Unique ID : 221977230434163580729592797462451050911 (0xA6FF426F051C020EBD7869091E69D99F)
Complete name : Al.Jazeera.The.Disappeared.of.Syria.720p.mkv
Format : Matroska
Format version : Version 4 / Version 2
File size : 697 MiB
Duration : 46 min 6 s
Overall bit rate : 2 113 kb/s

Video
ID : 1
Format : AVC
Format/Info : Advanced Video Codec
Format profile : High@L3.1
Format settings, CABAC : Yes
Format settings, ReFrames : 4 frames
Codec ID : V_MPEG4/ISO/AVC
Duration : 46 min 6 s
Bit rate : 2 047 kb/s
Width : 1 280 pixels
Height : 664 pixels
Display aspect ratio : 1.928
Frame rate mode : Constant
Frame rate : 25.000 FPS
Color space : YUV
Chroma subsampling : 4:2:0
Bit depth : 8 bits
Scan type : Progressive
Bits/(Pixel*Frame) : 0.096
Stream size : 675 MiB (97%)
Encoding settings : cabac=1 / ref=4 / deblock=1:0:0 / analyse=0x3:0x113 / me=umh / subme=9 / psy=1 / psy_rd=1.00:0.00 / mixed_ref=1 / me_range=24 / chroma_me=1 / trellis=1 / 8x8dct=1 / cqm=0 / deadzone=21,11 / fast_pskip=0 / chroma_qp_offset=-2 / threads=3 / lookahead_threads=1 / sliced_threads=0 / nr=0 / decimate=1 / interlaced=0 / bluray_compat=0 / constrained_intra=0 / bframes=5 / b_pyramid=2 / b_adapt=2 / b_bias=0 / direct=1 / weightb=1 / open_gop=0 / weightp=2 / keyint=250 / keyint_min=25 / scenecut=40 / intra_refresh=0 / rc_lookahead=40 / rc=crf / mbtree=1 / crf=20.0 / qcomp=0.60 / qpmin=0 / qpmax=69 / qpstep=4 / ip_ratio=1.40 / aq=1:1.00
Language : English
Default : Yes
Forced : No

Audio
ID : 2
Format : AAC
Format/Info : Advanced Audio Codec
Format profile : HE-AAC / LC
Codec ID : A_AAC
Duration : 46 min 6 s
Bit rate : 64.0 kb/s
Channel(s) : 2 channels
Channel positions : Front: L R
Sampling rate : 48.0 kHz / 24.0 kHz
Frame rate : 23.438 FPS (1024 spf)
Compression mode : Lossy
Delay relative to video : 31 ms
Stream size : 21.1 MiB (3%)
Language : English
Default : Yes
Forced : No


Screenshots:

Al-Jazeera - The Disappeared of Syria (2016)

Al-Jazeera - The Disappeared of Syria (2016)

Al-Jazeera - The Disappeared of Syria (2016)

Al-Jazeera - The Disappeared of Syria (2016)