Ali Wong: Baby Cobra (2016)

Posted By: Tavaz
1080p (FullHD) / WEB-DL IMDb
Ali Wong: Baby Cobra (2016)

Ali Wong: Baby Cobra (2016)
WEB-DL | MKV | 1920x1080 | English | H264 @ 4220 kbps | E-AC-3 @ 128 kbps | 1 h 0 min | 1.83 GiB
Subtitles: Swedish, Norwegian Bokmal, Turkish, Romanian, Dutch, Korean, Danish, Bulgarian, Vietnamese, French, Thai, Finnish, Spanish, Greek, English, Italian, Portuguese, Chinese, German, Japanese, Hebrew, Polish, Arabic
Genre: Comedy

Ali Wong might be seven-months pregnant, but there’s not a fetus in the world that can stop this acerbic and savage train of comedy from delivering a masterful hour of stand-up.

c55a914de12c480ba5779b876190c1d8.mkv (1.8 GB)



General
Unique ID : 199014889359045705671644825035180293089 (0x95B8DF9C5B1474C1B080FD64B6EF3BE1)
Complete name : ./c55a914de12c480ba5779b876190c1d8.mkv
Format : Matroska
Format version : Version 4 / Version 2
File size : 1.83 GiB
Duration : 1 h 0 min
Overall bit rate mode : Variable
Overall bit rate : 4 350 kb/s
Encoded date : UTC 2017-11-26 02:12:08
Writing application : mkvmerge v13.0.0 ('The Juggler') 64bit
Writing library : libebml v1.3.4 + libmatroska v1.4.5

Video
ID : 1
Format : AVC
Format/Info : Advanced Video Codec
Format profile : Main@L4
Format settings : CABAC / 3 Ref Frames
Format settings, CABAC : Yes
Format settings, RefFrames : 3 frames
Codec ID : V_MPEG4/ISO/AVC
Duration : 1 h 0 min
Bit rate mode : Variable
Bit rate : 4 220 kb/s
Maximum bit rate : 6 330 kb/s
Width : 1 920 pixels
Height : 1 080 pixels
Display aspect ratio : 16:9
Frame rate mode : Constant
Frame rate : 23.976 (24000/1001) FPS
Color space : YUV
Chroma subsampling : 4:2:0
Bit depth : 8 bits
Scan type : Progressive
Bits/(Pixel*Frame) : 0.085
Stream size : 1.77 GiB (97%)
Writing library : x264 core 118
Encoding settings : cabac=1 / ref=3 / deblock=1:0:0 / analyse=0x1:0x111 / me=umh / subme=10 / psy=1 / psy_rd=1.00:0.00 / mixed_ref=1 / me_range=24 / chroma_me=1 / trellis=2 / 8x8dct=0 / cqm=0 / deadzone=21,11 / fast_pskip=1 / chroma_qp_offset=-2 / threads=8 / sliced_threads=0 / nr=0 / decimate=1 / interlaced=0 / bluray_compat=0 / constrained_intra=0 / bframes=2 / b_pyramid=0 / b_adapt=2 / b_bias=0 / direct=3 / weightb=1 / open_gop=0 / weightp=2 / keyint=48 / keyint_min=25 / scenecut=0 / intra_refresh=0 / rc_lookahead=0 / rc=2pass / mbtree=1 / bitrate=4220 / ratetol=1.0 / qcomp=0.50 / qpmin=6 / qpmax=51 / qpstep=4 / cplxblur=20.0 / qblur=0.5 / vbv_maxrate=6330 / vbv_bufsize=8440 / nal_hrd=vbr / ip_ratio=1.40 / aq=1:1.00
Default : Yes
Forced : No

Audio
ID : 2
Format : E-AC-3
Format/Info : Enhanced Audio Coding 3
Format settings, Endianness : Big
Codec ID : A_EAC3
Duration : 1 h 0 min
Bit rate mode : Constant
Bit rate : 128 kb/s
Channel(s) : 2 channels
Channel positions : Front: L R
Sampling rate : 48.0 kHz
Frame rate : 187.500 FPS (256 SPF)
Compression mode : Lossy
Stream size : 55.1 MiB (3%)
Language : English
Service kind : Complete Main
Default : Yes
Forced : No

Text #1
ID : 3
Format : UTF-8
Codec ID : S_TEXT/UTF8
Codec ID/Info : UTF-8 Plain Text
Duration : 58 min 53 s
Bit rate : 92 b/s
Count of elements : 1022
Stream size : 40.1 KiB (0%)
Title : SDH
Language : English
Default : No
Forced : No

Text #2
ID : 4
Format : UTF-8
Codec ID : S_TEXT/UTF8
Codec ID/Info : UTF-8 Plain Text
Duration : 58 min 49 s
Bit rate : 136 b/s
Count of elements : 948
Stream size : 58.8 KiB (0%)
Language : Arabic
Default : No
Forced : No

Text #3
ID : 5
Format : UTF-8
Codec ID : S_TEXT/UTF8
Codec ID/Info : UTF-8 Plain Text
Duration : 58 min 49 s
Bit rate : 129 b/s
Count of elements : 919
Stream size : 55.6 KiB (0%)
Language : Bulgarian
Default : No
Forced : No

Text #4
ID : 6
Format : UTF-8
Codec ID : S_TEXT/UTF8
Codec ID/Info : UTF-8 Plain Text
Duration : 58 min 49 s
Bit rate : 79 b/s
Count of elements : 822
Stream size : 34.3 KiB (0%)
Language : Danish
Default : No
Forced : No

Text #5
ID : 7
Format : UTF-8
Codec ID : S_TEXT/UTF8
Codec ID/Info : UTF-8 Plain Text
Duration : 59 min 28 s
Bit rate : 78 b/s
Count of elements : 939
Stream size : 34.1 KiB (0%)
Language : German
Default : No
Forced : No

Text #6
ID : 8
Format : UTF-8
Codec ID : S_TEXT/UTF8
Codec ID/Info : UTF-8 Plain Text
Duration : 59 min 28 s
Bit rate : 151 b/s
Count of elements : 846
Stream size : 66.2 KiB (0%)
Language : Greek
Default : No
Forced : No

Text #7
ID : 9
Format : UTF-8
Codec ID : S_TEXT/UTF8
Codec ID/Info : UTF-8 Plain Text
Duration : 58 min 49 s
Bit rate : 76 b/s
Count of elements : 948
Stream size : 32.9 KiB (0%)
Language : Spanish
Default : No
Forced : No

Text #8
ID : 10
Format : UTF-8
Codec ID : S_TEXT/UTF8
Codec ID/Info : UTF-8 Plain Text
Duration : 58 min 49 s
Bit rate : 76 b/s
Count of elements : 941
Stream size : 33.1 KiB (0%)
Language : Spanish
Default : No
Forced : No

Text #9
ID : 11
Format : UTF-8
Codec ID : S_TEXT/UTF8
Codec ID/Info : UTF-8 Plain Text
Duration : 58 min 49 s
Bit rate : 73 b/s
Count of elements : 934
Stream size : 31.9 KiB (0%)
Language : Finnish
Default : No
Forced : No

Text #10
ID : 12
Format : UTF-8
Codec ID : S_TEXT/UTF8
Codec ID/Info : UTF-8 Plain Text
Duration : 58 min 49 s
Bit rate : 79 b/s
Count of elements : 937
Stream size : 34.3 KiB (0%)
Language : French
Default : No
Forced : No

Text #11
ID : 13
Format : UTF-8
Codec ID : S_TEXT/UTF8
Codec ID/Info : UTF-8 Plain Text
Duration : 58 min 49 s
Bit rate : 130 b/s
Count of elements : 920
Stream size : 56.4 KiB (0%)
Language : Hebrew
Default : No
Forced : No

Text #12
ID : 14
Format : UTF-8
Codec ID : S_TEXT/UTF8
Codec ID/Info : UTF-8 Plain Text
Duration : 58 min 49 s
Bit rate : 75 b/s
Count of elements : 938
Stream size : 32.6 KiB (0%)
Language : Italian
Default : No
Forced : No

Text #13
ID : 15
Format : UTF-8
Codec ID : S_TEXT/UTF8
Codec ID/Info : UTF-8 Plain Text
Duration : 59 min 28 s
Bit rate : 73 b/s
Count of elements : 735
Stream size : 32.1 KiB (0%)
Language : Japanese
Default : No
Forced : No

Text #14
ID : 16
Format : UTF-8
Codec ID : S_TEXT/UTF8
Codec ID/Info : UTF-8 Plain Text
Duration : 58 min 49 s
Bit rate : 89 b/s
Count of elements : 948
Stream size : 38.7 KiB (0%)
Language : Korean
Default : No
Forced : No

Text #15
ID : 17
Format : UTF-8
Codec ID : S_TEXT/UTF8
Codec ID/Info : UTF-8 Plain Text
Duration : 58 min 49 s
Bit rate : 81 b/s
Count of elements : 935
Stream size : 35.2 KiB (0%)
Language : Norwegian Bokmal
Default : No
Forced : No

Text #16
ID : 18
Format : UTF-8
Codec ID : S_TEXT/UTF8
Codec ID/Info : UTF-8 Plain Text
Duration : 58 min 49 s
Bit rate : 78 b/s
Count of elements : 876
Stream size : 33.8 KiB (0%)
Language : Dutch
Default : No
Forced : No

Text #17
ID : 19
Format : UTF-8
Codec ID : S_TEXT/UTF8
Codec ID/Info : UTF-8 Plain Text
Duration : 58 min 49 s
Bit rate : 72 b/s
Count of elements : 931
Stream size : 31.2 KiB (0%)
Language : Polish
Default : No
Forced : No

Text #18
ID : 20
Format : UTF-8
Codec ID : S_TEXT/UTF8
Codec ID/Info : UTF-8 Plain Text
Duration : 58 min 49 s
Bit rate : 81 b/s
Count of elements : 948
Stream size : 35.0 KiB (0%)
Language : Portuguese
Default : No
Forced : No

Text #19
ID : 21
Format : UTF-8
Codec ID : S_TEXT/UTF8
Codec ID/Info : UTF-8 Plain Text
Duration : 58 min 49 s
Bit rate : 70 b/s
Count of elements : 940
Stream size : 30.4 KiB (0%)
Title : Brazilian
Language : Portuguese
Default : No
Forced : No

Text #20
ID : 22
Format : UTF-8
Codec ID : S_TEXT/UTF8
Codec ID/Info : UTF-8 Plain Text
Duration : 59 min 28 s
Bit rate : 82 b/s
Count of elements : 885
Stream size : 36.0 KiB (0%)
Language : Romanian
Default : No
Forced : No

Text #21
ID : 23
Format : UTF-8
Codec ID : S_TEXT/UTF8
Codec ID/Info : UTF-8 Plain Text
Duration : 58 min 49 s
Bit rate : 76 b/s
Count of elements : 948
Stream size : 32.9 KiB (0%)
Language : Swedish
Default : No
Forced : No

Text #22
ID : 24
Format : UTF-8
Codec ID : S_TEXT/UTF8
Codec ID/Info : UTF-8 Plain Text
Duration : 58 min 49 s
Bit rate : 211 b/s
Count of elements : 1124
Stream size : 91.1 KiB (0%)
Language : Thai
Default : No
Forced : No

Text #23
ID : 25
Format : UTF-8
Codec ID : S_TEXT/UTF8
Codec ID/Info : UTF-8 Plain Text
Duration : 58 min 50 s
Bit rate : 84 b/s
Count of elements : 941
Stream size : 36.2 KiB (0%)
Language : Turkish
Default : No
Forced : No

Text #24
ID : 26
Format : UTF-8
Codec ID : S_TEXT/UTF8
Codec ID/Info : UTF-8 Plain Text
Duration : 1 h 0 min
Bit rate : 103 b/s
Count of elements : 802
Stream size : 45.6 KiB (0%)
Language : Vietnamese
Default : No
Forced : No

Text #25
ID : 27
Format : UTF-8
Codec ID : S_TEXT/UTF8
Codec ID/Info : UTF-8 Plain Text
Duration : 58 min 49 s
Bit rate : 68 b/s
Count of elements : 948
Stream size : 29.4 KiB (0%)
Title : Simplified
Language : Chinese
Default : No
Forced : No

Text #26
ID : 28
Format : UTF-8
Codec ID : S_TEXT/UTF8
Codec ID/Info : UTF-8 Plain Text
Duration : 58 min 49 s
Bit rate : 75 b/s
Count of elements : 949
Stream size : 32.3 KiB (0%)
Title : Traditional
Language : Chinese
Default : No
Forced : No





Ali Wong: Baby Cobra (2016)


Ali Wong: Baby Cobra (2016)


Ali Wong: Baby Cobra (2016)


Ali Wong: Baby Cobra (2016)


Ali Wong: Baby Cobra (2016)