Tags
Language
Tags

All or Nothing: Tottenham Hotspur (2020)

Posted By: notbanned
720p (HD) / WEB-DL IMDb
All or Nothing: Tottenham Hotspur (2020)

All or Nothing: Tottenham Hotspur (2020)
WEB-DL | 1280x720 | .MKV/AVC @ 3550 Kbps | 9x~46min | 12.5 GiB
Audio: English EAC3 640 kbps, 6 channels | Subs: English
Genre: Documentary

Go behind the scenes of Tottenham Hotspur Football Club during one of the most defining seasons in their history. Chairman Daniel Levy makes the mid-season decision to sack manager Mauricio Pochettino and hire José Mourinho. Players including Dele Alli, Heung-Min Son and Harry Kane fight to put the club amongst Europe’s elite against the backdrop of the global coronavirus crisis.
1. A NEW SIGNING
As the new season begins for Tottenham Hotspur, expectations are high following a thrilling run to the 2019 Champions League final and some big signings during the summer. However, results on the pitch in the first few months are disappointing as the team slip down the league table, forcing Chairman Daniel Levy into a difficult decision. Will it pay off?

2. A NEW START
It’s a new era for Spurs as José Mourinho, one of world football’s most famous coaches, takes the reins, replacing Mauricio Pochettino just before an important London derby against West Ham United. While José sets out to win over hearts and minds at the club, the players have to prove themselves to secure a place in his squad.

3. NO MORE MR NICE GUY
Tottenham Hotspur have suffered their first loss under José Mourinho against his former club, Manchester United. The team aims to get back to winning ways in order to climb the Premier League table and finish in the Champions League places, while the club seeks to resolve the futures of several members of the squad.

4. SEASON’S GREETINGS
It’s Christmas, and Head Coach José Mourinho faces his first major challenge at the club. A growing injury list means he must turn to the club’s Academy and is forced to re-think his team selection. Local lad Japhet Tanganga suddenly finds himself in the first team squad. As he prepares for the biggest game of his life, does the youngster have what it takes to fulfil his lifelong dream?

5. NEW BLOOD
The January transfer window is in full swing as top clubs battle it out to sign new players. It’s José Mourinho’s first chance to put his mark on the squad – a task all the more pressing as the club looks to resolve the futures of two of the squad’s most senior players, Danny Rose and Christian Eriksen. Deadline day approaches, so too does a vital game against reigning champions Manchester City.

6. RUNNING ON EMPTY
Fresh off the back of a huge win against champions Manchester City, Spurs find themselves facing an ever-growing injury list with Moussa Sissoko and Harry Kane the latest long-term absentees. With the club still competing on three fronts head coach José Mourinho relies heavily on Heung-Min Son to lead the line. But will yet another devastating injury threaten to end his season?

7. NO REGRETS
Four months into the job and José Mourinho finds himself in the middle of a difficult run of results. With the team facing the knockout stages of two competitions, Academy graduate Harry Winks is handed the captaincy, while goalkeeper Michel Vorm gets his first start of the season. With wins hard to come by, friends Dele and Eric Dier have a full and frank exchange after a loss.

8. STOP
Tottenham Hotspur’s season is hanging in the balance. They are still fighting on two fronts, with a must win match against RB Leipzig in the Champions League and staying in contention for a lucrative top four finish in the Premier League. But as they focus on their final ten games, the impact of the Coronavirus pandemic is felt by the club and its players.

9. THE RUN IN
With the season restarted, Spurs have 8 games to secure European football next season. José Mourinho must navigate some tough fixtures including the North London derby against Arsenal. The pressure tells as Hugo Lloris and Heung-min Son have an on-pitch altercation. As the longest season in their history draws to a close, Spurs look to the future and say goodbye to two long-serving squad members.


General
Unique ID : 112243000341748251567860428770563074666 (0x5471372DAB45036CF6FB7D42F14C2A6A)
Complete name : All.or.Nothing.Tottenham.Hotspur.S01E01.A.New.Signing.720p.mkv
Format : Matroska
Format version : Version 4 / Version 2
File size : 1.37 GiB
Duration : 46 min 55 s
Overall bit rate : 4 192 kb/s

Video
ID : 1
Format : AVC
Format/Info : Advanced Video Codec
Format profile : High@L3.1
Format settings, CABAC : Yes
Format settings, ReFrames : 4 frames
Codec ID : V_MPEG4/ISO/AVC
Duration : 46 min 55 s
Bit rate mode : Constant
Bit rate : 3 550 kb/s
Nominal bit rate : 4 000 kb/s
Width : 1 280 pixels
Height : 720 pixels
Display aspect ratio : 16:9
Frame rate mode : Constant
Frame rate : 25.000 FPS
Color space : YUV
Chroma subsampling : 4:2:0
Bit depth : 8 bits
Scan type : Progressive
Bits/(Pixel*Frame) : 0.154
Stream size : 1.16 GiB (85%)
Default : Yes
Forced : No
Color range : Limited
Color primaries : BT.709
Transfer characteristics : BT.709
Matrix coefficients : BT.709

Audio
ID : 2
Format : E-AC-3
Format/Info : Enhanced Audio Coding 3
Format settings, Endianness : Big
Codec ID : A_EAC3
Duration : 46 min 55 s
Bit rate mode : Constant
Bit rate : 640 kb/s
Channel(s) : 6 channels
Channel positions : Front: L C R, Side: L R, LFE
Sampling rate : 48.0 kHz
Frame rate : 187.500 FPS (256 spf)
Compression mode : Lossy
Stream size : 215 MiB (15%)
Language : English
Service kind : Complete Main
Default : Yes
Forced : No

Text #1
ID : 3
Format : UTF-8
Codec ID : S_TEXT/UTF8
Codec ID/Info : UTF-8 Plain Text
Duration : 45 min 45 s
Bit rate : 81 b/s
Count of elements : 712
Stream size : 27.3 KiB (0%)
Language : English
Default : No
Forced : No

Text #2
ID : 4
Format : UTF-8
Codec ID : S_TEXT/UTF8
Codec ID/Info : UTF-8 Plain Text
Duration : 45 min 45 s
Bit rate : 81 b/s
Count of elements : 712
Stream size : 27.3 KiB (0%)
Title : SDH
Language : English
Default : No
Forced : No

Menu
00:00:00.000 : en:Amazon Original
00:00:05.000 : en:An overview of the team and its history
00:03:50.000 : en:Title Sequence
00:04:00.000 : en:An introduction to the Chairman
00:06:52.000 : en:Pochettino coaching
00:08:58.000 : en:Contract negotiations
00:12:12.000 : en:Tottenham vs. Bayern Munich
00:14:44.000 : en:Depending on a legacy of success
00:21:37.000 : en:A shocking announcement
00:27:18.000 : en:A new chapter
00:35:37.000 : en:Getting to know the players
00:40:58.000 : en:First tactics meeting
00:44:07.000 : en:Tottenham vs. West Ham
00:45:26.000 : en:Next Time
00:45:58.000 : en:End Credits


Screenshots:

All or Nothing: Tottenham Hotspur (2020)

All or Nothing: Tottenham Hotspur (2020)

All or Nothing: Tottenham Hotspur (2020)

All or Nothing: Tottenham Hotspur (2020)