Almost Adults (2016)

Posted By: JohnSmith
Almost Adults (2016)

Almost Adults (2016)
HDRip | AVI / XviD@2108 kb/s | 720x384 | 1h 29mn | 1.57 GB | English: AC3, 384 kb/s (6 ch)
WEB-DL 720p | AVI / XviD@4767 kb/s | 1280x692 | 1h 29mn | 3.24 GB | English: AC3, 384 kb/s (6 ch)
WEB-DL 1080p | MKV / AVC@5106 kb/s | 1904x1028 | 1h 29mn | 3.52 GB
English: AC3, 384 kb/s (6 ch) | Subtitles: English
Genre: Comedy | Drama

A film about growing apart when growing up. Two best friends relationship strains when one deals with her newfound sexuality and the other with breaking up with her long term boyfriend.




General
Complete name : E:\Almost.Adults.2016.WEB-DL.XviD.AC3-FGT.avi
Format : AVI
Format/Info : Audio Video Interleave
File size : 1.57 GiB
Duration : 1 h 29 min
Overall bit rate : 2 501 kb/s
Movie name : Almost.Adults.2016.WEB-DL.XviD.AC3-FGT
Writing library : VirtualDub build 35491/release
Comment : Almost.Adults.2016.WEB-DL.XviD.AC3-FGT

Video
ID : 0
Format : MPEG-4 Visual
Format profile : Simple@L5
Format settings, BVOP : No
Format settings, QPel : No
Format settings, GMC : No warppoints
Format settings, Matrix : Default (H.263)
Codec ID : XVID
Codec ID/Hint : XviD
Duration : 1 h 29 min
Bit rate : 2 108 kb/s
Width : 720 pixels
Height : 384 pixels
Display aspect ratio : 1.85:1
Frame rate : 23.976 FPS
Color space : YUV
Chroma subsampling : 4:2:0
Bit depth : 8 bits
Scan type : Progressive
Compression mode : Lossy
Bits/(Pixel*Frame) : 0.318
Stream size : 1.32 GiB (84%)
Writing library : Lavc57.16.101

Audio
ID : 1
Format : AC-3
Format/Info : Audio Coding 3
Mode extension : CM (complete main)
Format settings, Endianness : Big
Codec ID : 2000
Duration : 1 h 29 min
Bit rate mode : Constant
Bit rate : 384 kb/s
Channel(s) : 6 channels
Channel positions : Front: L C R, Side: L R, LFE
Sampling rate : 48.0 kHz
Frame rate : 31.250 FPS (1536 spf)
Compression mode : Lossy
Stream size : 247 MiB (15%)
Alignment : Aligned on interleaves
Interleave, duration : 42 ms (1.00 video frame)
Interleave, preload duratio : 512 ms





General
Complete name : E:\Almost.Adults.2016.720p.WEB-DL.XviD.AC3-FGT.avi
Format : AVI
Format/Info : Audio Video Interleave
Format profile : OpenDML
File size : 3.24 GiB
Duration : 1 h 29 min
Overall bit rate : 5 161 kb/s
Movie name : Almost.Adults.2016.720p.WEB-DL.XviD.AC3-FGT
Writing library : VirtualDub build 35491/release
Comment : Almost.Adults.2016.720p.WEB-DL.XviD.AC3-FGT

Video
ID : 0
Format : MPEG-4 Visual
Format profile : Simple@L5
Format settings, BVOP : No
Format settings, QPel : No
Format settings, GMC : No warppoints
Format settings, Matrix : Default (H.263)
Codec ID : XVID
Codec ID/Hint : XviD
Duration : 1 h 29 min
Bit rate : 4 767 kb/s
Width : 1 280 pixels
Height : 692 pixels
Display aspect ratio : 1.85:1
Frame rate : 23.976 FPS
Color space : YUV
Chroma subsampling : 4:2:0
Bit depth : 8 bits
Scan type : Progressive
Compression mode : Lossy
Bits/(Pixel*Frame) : 0.224
Stream size : 2.99 GiB (92%)
Writing library : Lavc57.24.102

Audio
ID : 1
Format : AC-3
Format/Info : Audio Coding 3
Mode extension : CM (complete main)
Format settings, Endianness : Big
Codec ID : 2000
Duration : 1 h 29 min
Bit rate mode : Constant
Bit rate : 384 kb/s
Channel(s) : 6 channels
Channel positions : Front: L C R, Side: L R, LFE
Sampling rate : 48.0 kHz
Frame rate : 31.250 FPS (1536 spf)
Compression mode : Lossy
Stream size : 247 MiB (7%)
Alignment : Aligned on interleaves
Interleave, duration : 42 ms (1.00 video frame)
Interleave, preload duratio : 512 ms





General
Unique ID : 191186914296250012011633676814510865117 (0x8FD542A4734F49F6A750EBBB321E3ADD)
Complete name : E:\Almost.Adults.2016.1080p.WEB-DL.DD5.1.H264-FGT.mkv
Format : Matroska
Format version : Version 4 / Version 2
File size : 3.52 GiB
Duration : 1 h 29 min
Overall bit rate : 5 601 kb/s
Movie name : Almost.Adults.2016.1080p.WEB-DL.DD5.1.H264-FGT
Encoded date : UTC 2017-02-07 06:41:27
Writing application : mkvmerge v9.6.0 ('Slave To Your Mind') 64bit
Writing library : libebml v1.3.4 + libmatroska v1.4.5
Cover : Yes
Attachments : small_cover.jpg / small_cover_land.jpg / cover.jpg / cover_land.jpg

Video
ID : 1
Format : AVC
Format/Info : Advanced Video Codec
Format profile : High@L4
Format settings, CABAC : Yes
Format settings, ReFrames : 4 frames
Codec ID : V_MPEG4/ISO/AVC
Duration : 1 h 29 min
Bit rate : 5 106 kb/s
Width : 1 904 pixels
Height : 1 028 pixels
Display aspect ratio : 1.85:1
Frame rate mode : Constant
Frame rate : 23.976 FPS
Color space : YUV
Chroma subsampling : 4:2:0
Bit depth : 8 bits
Scan type : Progressive
Bits/(Pixel*Frame) : 0.109
Stream size : 3.21 GiB (91%)
Title : Almost.Adults.2016.1080p.WEB-DL.DD5.1.H264-FGT
Language : English
Default : Yes
Forced : No
Color range : Limited
Color primaries : BT.709
Transfer characteristics : BT.709
Matrix coefficients : BT.709

Audio
ID : 2
Format : AC-3
Format/Info : Audio Coding 3
Mode extension : CM (complete main)
Format settings, Endianness : Big
Codec ID : A_AC3
Duration : 1 h 29 min
Bit rate mode : Constant
Bit rate : 384 kb/s
Channel(s) : 6 channels
Channel positions : Front: L C R, Side: L R, LFE
Sampling rate : 48.0 kHz
Frame rate : 31.250 FPS (1536 spf)
Compression mode : Lossy
Stream size : 247 MiB (7%)
Title : Almost.Adults.2016.1080p.WEB-DL.DD5.1.H264-FGT
Language : English
Default : Yes
Forced : No

Text
ID : 3
Format : UTF-8
Codec ID : S_TEXT/UTF8
Codec ID/Info : UTF-8 Plain Text
Language : English
Default : Yes
Forced : No

Menu
00:00:00.000 : en:Blueberry Pancakes
00:03:23.203 : en:Dinner With The Parents
00:09:48.588 : en:Porn and Pizza Hut Buffet
00:14:14.854 : en:Sunday In The Park
00:18:48.127 : en:The Tumblr Page
00:22:32.351 : en:Let's Go Shopping
00:27:15.634 : en:D's and Fake Phone Numbers
00:33:35.013 : en:Why Didn't You Tell Me?
00:39:46.384 : en:Gaydar and Beer Pong
00:46:07.765 : en:Do You Want To Make Out?
00:53:07.184 : en:The Morning After
00:59:04.541 : en:Cassie, Where Are You?
01:06:42.999 : en:The Break Up
01:12:05.321 : en:Just A Booty Call
01:16:57.613 : en:Moving To NYC
01:21:32.888 : en:The Make Up
01:25:02.097 : en:One Year Later
01:27:15.230 : en:End Credits




Screenshots HDRip

Almost Adults (2016)

Almost Adults (2016)

Almost Adults (2016)


Screenshots WEB-DL 720p

Almost Adults (2016)

Almost Adults (2016)

Almost Adults (2016)


Screenshots WEB-DL 1080p

Almost Adults (2016)

Almost Adults (2016)

Almost Adults (2016)