Tags
Language
Tags

American Horror Story S07E03

Posted By: Tavaz
720p (HD) / HDTV IMDb
American Horror Story S07E03

American Horror Story S07E03
HDTV | MKV | 1280x720 | English | H264 @ 2035 kbps | AC-3 @ 192 kbps | 41 min 31 s | 675 MiB
Genre: Drame, Mystère

La famille Harmon, composée d'un psychiatre pervers, de sa femme meurtrie et de leur fille satanique, s'installe dans un manoir… hanté, après l'adultère du père et la fausse couche de la mère. Les esprits rôdent et sont bien décidés à les torturer, afin de les confronter à leurs plus grandes peurs…

American.Horror.Story.S07E03.FRENCH.720p.HDTV.x264-SH0W.mkv (674.9 MB)



General
Complete name : ./American.Horror.Story.S07E03.FRENCH.720p.HDTV.x264-SH0W.mkv
Format : Matroska
Format version : Version 2
File size : 675 MiB
Duration : 41 min 31 s
Overall bit rate : 2 273 kb/s
Writing application : x264.exe
Writing library : mkv2rls x264-tv version built on 2016.10.12

Video
ID : 1
Format : AVC
Format/Info : Advanced Video Codec
Format profile : High@L4.1
Format settings : CABAC / 5 Ref Frames
Format settings, CABAC : Yes
Format settings, RefFrames : 5 frames
Codec ID : V_MPEG4/ISO/AVC
Duration : 41 min 31 s
Bit rate : 2 035 kb/s
Width : 1 280 pixels
Height : 720 pixels
Display aspect ratio : 16:9
Frame rate mode : Constant
Frame rate : 25.000 FPS
Color space : YUV
Chroma subsampling : 4:2:0
Bit depth : 8 bits
Scan type : Progressive
Bits/(Pixel*Frame) : 0.088
Stream size : 604 MiB (90%)
Writing library : x264 core 152 r2851 ba24899
Encoding settings : cabac=1 / ref=5 / deblock=1:0:0 / analyse=0x3:0x113 / me=umh / subme=9 / psy=1 / psy_rd=1.00:0.00 / mixed_ref=1 / me_range=16 / chroma_me=1 / trellis=2 / 8x8dct=1 / cqm=0 / deadzone=21,11 / fast_pskip=1 / chroma_qp_offset=-2 / threads=18 / lookahead_threads=1 / sliced_threads=0 / nr=0 / decimate=1 / interlaced=0 / bluray_compat=0 / constrained_intra=0 / bframes=3 / b_pyramid=2 / b_adapt=1 / b_bias=0 / direct=3 / weightb=1 / open_gop=0 / weightp=2 / keyint=250 / keyint_min=25 / scenecut=40 / intra_refresh=0 / rc_lookahead=50 / rc=crf / mbtree=1 / crf=18.0 / qcomp=0.60 / qpmin=0 / qpmax=69 / qpstep=4 / ip_ratio=1.40 / aq=1:1.00
Language : English
Default : Yes
Forced : No
Color range : Limited
Matrix coefficients : BT.709

Audio
ID : 2
Format : AC-3
Format/Info : Audio Coding 3
Format settings, Endianness : Big
Codec ID : A_AC3
Duration : 41 min 31 s
Bit rate mode : Constant
Bit rate : 192 kb/s
Channel(s) : 2 channels
Channel positions : Front: L R
Sampling rate : 48.0 kHz
Frame rate : 31.250 FPS (1536 SPF)
Bit depth : 16 bits
Compression mode : Lossy
Stream size : 57.0 MiB (8%)
Language : English
Service kind : Complete Main
Default : Yes
Forced : No





American Horror Story S07E03


American Horror Story S07E03


American Horror Story S07E03


American Horror Story S07E03


American Horror Story S07E03

All episodes