Tags
Language
Tags

American Horror Story S07E06

Posted By: Tavaz
SD / WEBRip IMDb
American Horror Story S07E06

American Horror Story S07E06
WEBRip | MKV | 720x404 | German | H264 @ 736 kbps | AC-3 @ 384 kbps | 42 min 40 s | 349 MiB
Genre: Drama, Mystery

Die Serienanthologie American Horror Story erzählt von Staffel zu Staffel verschiedene, in sich abgeschlossene Geschichten, die sich mit unterschiedlichen Arten von Horror beschäftigen. Während jedes Jahr die Thematik sowie das Setting und viele Darsteller gewechselt werden, kehren einige Schauspieler mehrmals in unterschiedlichen Rollen zur Serie zurück.

S07E06 German.mkv (348.8 MB)



General
Unique ID : 278279924419311668629410340089488908696 (0xD15AC39150E87861B074AF01A84AA198)
Complete name : ./Amerikanische Horrorgeschichte S07E06 German/S07E06 German.mkv
Format : Matroska
Format version : Version 2
File size : 349 MiB
Duration : 42 min 40 s
Overall bit rate : 1 143 kb/s
Movie name : American.Horror.Story.S07E06.Wahlkampf.im.Mittleren.Westen.GERMAN.DUBBED.WS.WebRip.x264-TVP
Encoded date : UTC 2017-12-14 21:53:37
Writing application : mkvmerge v5.6.0 ('Kenya Kane') built on May 28 2012 06:47:39
Writing library : libebml v1.2.2 + libmatroska v1.3.0

Video
ID : 1
Format : AVC
Format/Info : Advanced Video Codec
Format profile : High@L3.1
Format settings : CABAC / 8 Ref Frames
Format settings, CABAC : Yes
Format settings, RefFrames : 8 frames
Codec ID : V_MPEG4/ISO/AVC
Duration : 42 min 40 s
Bit rate : 736 kb/s
Width : 720 pixels
Height : 404 pixels
Display aspect ratio : 16:9
Frame rate mode : Constant
Frame rate : 25.000 FPS
Original frame rate : 23.976 (24000/1001) FPS
Color space : YUV
Chroma subsampling : 4:2:0
Bit depth : 8 bits
Scan type : Progressive
Bits/(Pixel*Frame) : 0.101
Stream size : 225 MiB (64%)
Title : tvp-americanhorror-s07e06-480p
Writing library : x264 core 148 r2708 86b7198
Encoding settings : cabac=1 / ref=8 / deblock=1:-2:-2 / analyse=0x3:0x133 / me=umh / subme=9 / psy=1 / psy_rd=1.00:0.15 / mixed_ref=1 / me_range=16 / chroma_me=1 / trellis=2 / 8x8dct=1 / cqm=0 / deadzone=21,11 / fast_pskip=1 / chroma_qp_offset=-3 / threads=12 / lookahead_threads=1 / sliced_threads=0 / nr=0 / decimate=1 / interlaced=0 / bluray_compat=0 / constrained_intra=0 / bframes=3 / b_pyramid=2 / b_adapt=2 / b_bias=0 / direct=3 / weightb=1 / open_gop=0 / weightp=2 / keyint=240 / keyint_min=24 / scenecut=40 / intra_refresh=0 / rc_lookahead=60 / rc=crf / mbtree=1 / crf=19.0 / qcomp=0.60 / qpmin=0 / qpmax=69 / qpstep=4 / vbv_maxrate=17500 / vbv_bufsize=17500 / crf_max=0.0 / nal_hrd=none / filler=0 / ip_ratio=1.40 / aq=1:1.00
Language : German
Default : Yes
Forced : Yes
Color range : Limited
Color primaries : BT.709
Transfer characteristics : BT.709
Matrix coefficients : BT.709

Audio
ID : 2
Format : AC-3
Format/Info : Audio Coding 3
Format settings, Endianness : Big
Codec ID : A_AC3
Duration : 42 min 40 s
Bit rate mode : Constant
Bit rate : 384 kb/s
Channel(s) : 6 channels
Channel positions : Front: L C R, Side: L R, LFE
Sampling rate : 48.0 kHz
Frame rate : 31.250 FPS (1536 SPF)
Bit depth : 16 bits
Compression mode : Lossy
Stream size : 117 MiB (34%)
Language : German
Service kind : Complete Main
Default : Yes
Forced : Yes





American Horror Story S07E06


American Horror Story S07E06


American Horror Story S07E06


American Horror Story S07E06


American Horror Story S07E06

All episodes