American Crime Story S01E06-E07 (2016)

Posted By: JohnSmith
American Crime Story S01E06-E07 (2016)

American Crime Story S01E06-E07 (2016)
HDRip | AVI / XviD@~1300 kb/s | 720x400 | 2x~50mn | 2x~600 MB | Italian: AC3, 384 kb/s (6 ch)
Genre: Biography | Crime | Drama

Incentrata sul processo a O.J. Simpson, ex-giocatore di football e attore accusato negli anni Novanta di aver ucciso la moglie, Nicole Brown, e un suo amico, Ronald Goldman.

IMDB - Top Rated TV #143 | 1 win.



General
Complete name : C:\American.Crime.Story.S01E06.ITA.avi
Format : AVI
Format/Info : Audio Video Interleave
File size : 635 MiB
Duration : 52mn 10s
Overall bit rate : 1 701 Kbps
Writing application : VirtualDubMod 1.5.10.3 | www.virtualdub-fr.org || (build 2550/release)
Writing library : VirtualDubMod build 2550/release

Video
ID : 0
Format : MPEG-4 Visual
Format profile : Advanced Simple@L5
Format settings, BVOP : 2
Format settings, QPel : No
Format settings, GMC : No warppoints
Format settings, Matrix : Custom
Codec ID : XVID
Codec ID/Hint : XviD
Duration : 52mn 10s
Bit rate : 1 307 Kbps
Width : 720 pixels
Height : 400 pixels
Display aspect ratio : 16:9
Frame rate : 23.976 fps
Color space : YUV
Chroma subsampling : 4:2:0
Bit depth : 8 bits
Scan type : Progressive
Compression mode : Lossy
Bits/(Pixel*Frame) : 0.189
Stream size : 488 MiB (77%)
Writing library : XviD 67

Audio
ID : 1
Format : AC-3
Format/Info : Audio Coding 3
Mode extension : CM (complete main)
Format settings, Endianness : Big
Codec ID : 2000
Duration : 52mn 9s
Bit rate mode : Constant
Bit rate : 384 Kbps
Channel(s) : 6 channels
Channel positions : Front: L C R, Side: L R, LFE
Sampling rate : 48.0 KHz
Compression mode : Lossy
Stream size : 143 MiB (23%)
Alignment : Split accross interleaves
Interleave, duration : 42 ms (1.00 video frame)
Interleave, preload duratio : 500 ms


Screenshots

American Crime Story S01E06-E07 (2016)

American Crime Story S01E06-E07 (2016)

American Crime Story S01E06-E07 (2016)