American Crime Story S01E07 (2016)

Posted By: JohnSmith
American Crime Story S01E07 (2016)

American Crime Story S01E07 (2016)
HDTV 720p | MKV / AVC@3277 kb/s | 1280x720 | 41mn | 1.08 GB | English: AC3, 384 kb/s (6 ch)
Genre: Biography | Crime | Drama

There are few truly unifying events in American life. When something happens that makes the entire country stop and take notice, we remember it forever. Everybody remembers where they were when O.J. Simpson, riding in a white Bronco, led the police on a low-speed chase all over Los Angeles. This marked the emergence of the 24-hour news cycle and the birth of reality television.

IMDB - 1 win.



General
Unique ID : 263904830617526579839376133644137176016 (0xC68A38B92B94A62B84D67E26097A9BD0)
Complete name : D:\Downloads\American.Crime.Story.S01E07.720p.HDTV.x264-KILLERS[rarbg]\American.Crime.Story.S01E07.720p.HDTV.x264-KILLERS.mkv
Format : Matroska
Format version : Version 4 / Version 2
File size : 1.08 GiB
Duration : 41mn 31s
Overall bit rate : 3 736 Kbps
Encoded date : UTC 2016-03-16 02:59:54
Writing application : mkvmerge v7.0.0 ('Where We Going') 64bit built on Jun 22 2014 08:19:39
Writing library : libebml v1.3.0 + libmatroska v1.4.1

Video
ID : 1
Format : AVC
Format/Info : Advanced Video Codec
Format profile : High@L4.1
Format settings, CABAC : Yes
Format settings, ReFrames : 5 frames
Codec ID : V_MPEG4/ISO/AVC
Duration : 41mn 31s
Bit rate : 3 277 Kbps
Width : 1 280 pixels
Height : 720 pixels
Display aspect ratio : 16:9
Frame rate mode : Constant
Frame rate : 23.976 fps
Color space : YUV
Chroma subsampling : 4:2:0
Bit depth : 8 bits
Scan type : Progressive
Bits/(Pixel*Frame) : 0.148
Stream size : 973 MiB (88%)
Writing library : x264 core 148 r2665 a01e339
Encoding settings : cabac=1 / ref=5 / deblock=1:0:0 / analyse=0x3:0x113 / me=umh / subme=8 / psy=1 / psy_rd=1.00:0.00 / mixed_ref=1 / me_range=16 / chroma_me=1 / trellis=1 / 8x8dct=1 / cqm=0 / deadzone=21,11 / fast_pskip=1 / chroma_qp_offset=-2 / threads=22 / lookahead_threads=3 / sliced_threads=0 / nr=0 / decimate=1 / interlaced=0 / bluray_compat=0 / constrained_intra=0 / bframes=3 / b_pyramid=2 / b_adapt=2 / b_bias=0 / direct=3 / weightb=1 / open_gop=0 / weightp=2 / keyint=250 / keyint_min=23 / scenecut=40 / intra_refresh=0 / rc_lookahead=50 / rc=crf / mbtree=1 / crf=18.0 / qcomp=0.60 / qpmin=0 / qpmax=69 / qpstep=4 / ip_ratio=1.40 / aq=1:1.00
Language : English
Default : Yes
Forced : No
Color range : Limited
Matrix coefficients : BT.709

Audio
ID : 2
Format : AC-3
Format/Info : Audio Coding 3
Mode extension : CM (complete main)
Format settings, Endianness : Big
Codec ID : A_AC3
Duration : 41mn 31s
Bit rate mode : Constant
Bit rate : 384 Kbps
Channel(s) : 6 channels
Channel positions : Front: L C R, Side: L R, LFE
Sampling rate : 48.0 KHz
Compression mode : Lossy
Stream size : 114 MiB (10%)
Default : Yes
Forced : No


Screenshots

American Crime Story S01E07 (2016)

American Crime Story S01E07 (2016)

American Crime Story S01E07 (2016)