American Made (2017)

Posted By: JohnSmith
American Made (2017)

American Made (2017)
HDRip | AVI / XviD@1340 kb/s | 720x384 | 1h 55mn | 1.40 GB
English: AC3, 384 kb/s (6 ch) | Subtitles: English (forced)
WEB-DL 720p | MKV / AVC@3963 kb/s | 1280x688 | 1h 55mn | 3.57 GB
English: AC3, 384 kb/s (6 ch) | Subtitles: English (forced)
WEB-DL 1080p | MKV / AVC@5020 kb/s | 1916x1032 | 1h 55mn | 4.44 GB
English: AC3, 384 kb/s (6 ch) | Subtitles: English (forced)
Genre: Action | Biography | Comedy | Crime | Drama | History | Thriller

A pilot lands work for the CIA and as a drug runner in the south during the 1980s.




General
Complete name : G:\American.Made.2017.HDRip.XviD.AC3-EVO\American.Made.2017.HDRip.XviD.AC3-EVO.avi
Format : AVI
Format/Info : Audio Video Interleave
File size : 1.40 GiB
Duration : 1 h 55 min
Overall bit rate : 1 737 kb/s
Writing library : VirtualDub build 32593/release

Video
ID : 0
Format : MPEG-4 Visual
Format profile : Advanced Simple@L5
Format settings, BVOP : 2
Format settings, QPel : No
Format settings, GMC : No warppoints
Format settings, Matrix : Default (H.263)
Muxing mode : Packed bitstream
Codec ID : XVID
Codec ID/Hint : XviD
Duration : 1 h 55 min
Source duration : 1 h 9 min
Bit rate : 1 344 kb/s
Width : 720 pixels
Height : 384 pixels
Display aspect ratio : 1.85:1
Frame rate : 23.976 (24000/1001) FPS
Color space : YUV
Chroma subsampling : 4:2:0
Bit depth : 8 bits
Scan type : Progressive
Compression mode : Lossy
Bits/(Pixel*Frame) : 0.202
Stream size : 669 MiB (47%)
Writing library : XviD 66

Audio
ID : 1
Format : AC-3
Format/Info : Audio Coding 3
Format settings, Endianness : Big
Codec ID : 2000
Duration : 1 h 55 min
Source duration : 1 h 9 min
Bit rate mode : Constant
Bit rate : 384 kb/s
Channel(s) : 6 channels
Channel positions : Front: L C R, Side: L R, LFE
Sampling rate : 48.0 kHz
Frame rate : 31.250 FPS (1536 spf)
Bit depth : 16 bits
Compression mode : Lossy
Stream size : 192 MiB (13%)
Alignment : Aligned on interleaves
Interleave, duration : 42 ms (1.00 video frame)
Interleave, preload duratio : 512 ms
Service kind : Complete Main





General
Unique ID : 192268046197343888003217483676208108157 (0x90A57A8F7E34BD9789E62E884100927D)
Complete name : G:\American.Made.2017.720p.WEB-DL.H264.AC3-EVO\American.Made.2017.720p.WEB-DL.H264.AC3-EVO.mkv
Format : Matroska
Format version : Version 4 / Version 2
File size : 3.57 GiB
Duration : 1 h 55 min
Overall bit rate : 4 436 kb/s
Movie name : EVO
Encoded date : UTC 2017-11-21 14:33:14
Writing application : mkvmerge v6.7.0 ('Back to the Ground') 64bit built on Jan 8 2014 15:10:52
Writing library : libebml v1.3.0 + libmatroska v1.4.1

Video
ID : 1
Format : AVC
Format/Info : Advanced Video Codec
Format profile : High@L3.1
Format settings, CABAC : No
Format settings, ReFrames : 2 frames
Codec ID : V_MPEG4/ISO/AVC
Duration : 1 h 55 min
Bit rate : 3 963 kb/s
Width : 1 280 pixels
Height : 688 pixels
Display aspect ratio : 1.85:1
Frame rate mode : Constant
Frame rate : 24.000 FPS
Color space : YUV
Chroma subsampling : 4:2:0
Bit depth : 8 bits
Scan type : Progressive
Bits/(Pixel*Frame) : 0.188
Stream size : 3.19 GiB (89%)
Language : English
Default : Yes
Forced : No
Color range : Limited
Color primaries : BT.709
Transfer characteristics : BT.709
Matrix coefficients : BT.709

Audio
ID : 2
Format : AC-3
Format/Info : Audio Coding 3
Format settings, Endianness : Big
Codec ID : A_AC3
Duration : 1 h 55 min
Bit rate mode : Constant
Bit rate : 384 kb/s
Channel(s) : 6 channels
Channel positions : Front: L C R, Side: L R, LFE
Sampling rate : 48.0 kHz
Frame rate : 31.250 FPS (1536 spf)
Bit depth : 16 bits
Compression mode : Lossy
Stream size : 317 MiB (9%)
Language : English
Service kind : Complete Main
Default : Yes
Forced : No

Text
ID : 3
Format : UTF-8
Codec ID : S_TEXT/UTF8
Codec ID/Info : UTF-8 Plain Text
Title : Forced
Language : English
Default : Yes
Forced : Yes

Menu
00:00:00.000 : en:1
00:05:59.901 : en:2
00:10:42.099 : en:3
00:14:36.082 : en:4
00:21:19.193 : en:5
00:27:24.808 : en:6
00:33:47.273 : en:7
00:41:02.166 : en:8
00:46:15.604 : en:9
00:51:56.695 : en:10
00:54:59.294 : en:11
00:59:57.759 : en:12
01:07:29.418 : en:13
01:13:06.088 : en:14
01:17:12.459 : en:15
01:23:20.910 : en:16
01:26:16.293 : en:17
01:33:34.064 : en:18
01:38:39.035 : en:19
01:46:16.534 : en:20





General
Unique ID : 234698446579601123455166389575650943163 (0xB09146D05D2E800EA3B3996FA99CA0BB)
Complete name : G:\American.Made.2017.1080p.WEB-DL.H264.AC3-EVO\American.Made.2017.1080p.WEB-DL.H264.AC3-EVO.mkv
Format : Matroska
Format version : Version 4 / Version 2
File size : 4.44 GiB
Duration : 1 h 55 min
Overall bit rate : 5 513 kb/s
Encoded date : UTC 2017-11-21 14:44:39
Writing application : mkvmerge v6.7.0 ('Back to the Ground') 64bit built on Jan 8 2014 15:10:52
Writing library : libebml v1.3.0 + libmatroska v1.4.1

Video
ID : 2
Format : AVC
Format/Info : Advanced Video Codec
Format profile : High@L4
Format settings, CABAC : Yes
Format settings, ReFrames : 4 frames
Codec ID : V_MPEG4/ISO/AVC
Duration : 1 h 55 min
Bit rate : 5 020 kb/s
Width : 1 916 pixels
Height : 1 032 pixels
Display aspect ratio : 1.85:1
Frame rate mode : Constant
Frame rate : 24.000 FPS
Color space : YUV
Chroma subsampling : 4:2:0
Bit depth : 8 bits
Scan type : Progressive
Bits/(Pixel*Frame) : 0.106
Stream size : 4.04 GiB (91%)
Language : English
Default : Yes
Forced : No
Color range : Limited
Color primaries : BT.709
Transfer characteristics : BT.709
Matrix coefficients : BT.709

Audio
ID : 1
Format : AC-3
Format/Info : Audio Coding 3
Format settings, Endianness : Big
Codec ID : A_AC3
Duration : 1 h 55 min
Bit rate mode : Constant
Bit rate : 384 kb/s
Channel(s) : 6 channels
Channel positions : Front: L C R, Side: L R, LFE
Sampling rate : 48.0 kHz
Frame rate : 31.250 FPS (1536 spf)
Bit depth : 16 bits
Compression mode : Lossy
Stream size : 317 MiB (7%)
Language : English
Service kind : Complete Main
Default : Yes
Forced : No

Text
ID : 3
Format : UTF-8
Codec ID : S_TEXT/UTF8
Codec ID/Info : UTF-8 Plain Text
Title : Forced
Language : English
Default : Yes
Forced : Yes

Menu
00:00:00.000 : en:1
00:05:59.901 : en:2
00:10:42.098 : en:3
00:14:36.080 : en:4
00:21:19.190 : en:5
00:27:24.805 : en:6
00:33:47.269 : en:7
00:41:02.162 : en:8
00:46:15.600 : en:9
00:51:56.690 : en:10
00:54:59.289 : en:11
00:59:57.754 : en:12
01:07:29.413 : en:13
01:13:06.082 : en:14
01:17:12.453 : en:15
01:23:20.904 : en:16
01:26:16.286 : en:17
01:33:34.056 : en:18
01:38:39.027 : en:19
01:46:16.525 : en:20




Screenshots HDRip

American Made (2017)

American Made (2017)

American Made (2017)


Screenshots WEB-DL 720p

American Made (2017)

American Made (2017)

American Made (2017)


Screenshots WEB-DL 1080p

American Made (2017)

American Made (2017)

American Made (2017)