PBS - American Masters: Carole King Natural Woman (2016)

Posted By: notbanned
1080p (FullHD) / WEB-DL IMDb
PBS - American Masters: Carole King Natural Woman (2016)

PBS - American Masters: Carole King Natural Woman (2016)
WEB-DL | 1920x1080 | .MKV/AVC @ 6385 Kbps | 53 min 11 s | 2.43 GiB
Audio: English AAC 160 kbps, 2 channels | Subs: English
Genre: Documentary | Biography

Delve into the hit singer-songwriter's life and career from 1960s in New York to the music mecca of the 70s in Los Angeles to the present. Carole King joins collaborators and family in new interviews, while rare home movies, performances and photos complete the tapestry.

General
Unique ID : 93072181594414328734842591655600260881 (0x46050CD6C68245BC742389209E7B0711)
Complete name : American.Masters.S30E03.Carole.King.1080p.mkv
Format : Matroska
Format version : Version 4 / Version 2
File size : 2.43 GiB
Duration : 53 min 11 s
Overall bit rate : 6 548 kb/s

Video
ID : 1
Format : AVC
Format/Info : Advanced Video Codec
Format profile : High@L5
Format settings, CABAC : Yes
Format settings, ReFrames : 5 frames
Codec ID : V_MPEG4/ISO/AVC
Duration : 53 min 11 s
Bit rate : 6 385 kb/s
Width : 1 920 pixels
Height : 1 080 pixels
Display aspect ratio : 16:9
Frame rate mode : Constant
Frame rate : 29.970 (30000/1001) FPS
Color space : YUV
Chroma subsampling : 4:2:0
Bit depth : 8 bits
Scan type : Progressive
Bits/(Pixel*Frame) : 0.103
Stream size : 2.37 GiB (98%)
Writing library : Zencoder Video Encoding System
Default : Yes
Forced : No

Audio
ID : 2
Format : AAC
Format/Info : Advanced Audio Codec
Format profile : LC
Codec ID : A_AAC
Duration : 53 min 11 s
Bit rate : 160 kb/s
Channel(s) : 2 channels
Channel positions : Front: L R
Sampling rate : 48.0 kHz
Frame rate : 46.875 FPS (1024 spf)
Compression mode : Lossy
Stream size : 60.9 MiB (2%)
Language : English
Default : Yes
Forced : No

Text
ID : 3
Format : UTF-8
Codec ID : S_TEXT/UTF8
Codec ID/Info : UTF-8 Plain Text
Duration : 52 min 50 s
Bit rate : 103 b/s
Count of elements : 987
Stream size : 39.9 KiB (0%)
Language : English
Default : Yes
Forced : No


Screenshots:

PBS - American Masters: Carole King Natural Woman (2016)

PBS - American Masters: Carole King Natural Woman (2016)

PBS - American Masters: Carole King Natural Woman (2016)

PBS - American Masters: Carole King Natural Woman (2016)