Animali notturni (2016)

Posted By: JohnSmith
Animali notturni (2016)

Animali notturni / Nocturnal Animals (2016)
HDRip MD | AVI / XviD@2073 kb/s | 720x304 | 1h 56mn | 1.80 GB | Italian: MP3, 128 kb/s (2 ch)
Genre: Drama | Thriller

Susan riceve dall'ex marito un manoscritto su cui l'uomo vuole un'opinione. In quello che potrebbe essere un futuro libro pubblicato si racconta la storia di una vacanza familiare destinata a trasformarsi in qualcosa di violento e letale. Mentre si lascia prendere dallo scritto, Susan si ritrova a ricordare il suo primo matrimonio e ad affrontare alcune oscure verità che la riguardano.

IMDB - Nominated for 1 Oscar. Another 12 wins & 107 nominations.



General
Complete name : D:\Animali.Notturni.2016.iTALiAN.MD.WEBDL.XviD-FLASH.avi
Format : AVI
Format/Info : Audio Video Interleave
File size : 1.80 GiB
Duration : 1 h 56 min
Overall bit rate : 2 214 kb/s
Writing library : VirtualDub build 0/release

Video
ID : 0
Format : MPEG-4 Visual
Format profile : Advanced Simple@L5
Format settings, BVOP : 2
Format settings, QPel : No
Format settings, GMC : No warppoints
Format settings, Matrix : Default (H.263)
Codec ID : XVID
Codec ID/Hint : XviD
Duration : 1 h 56 min
Bit rate : 2 073 kb/s
Width : 720 pixels
Height : 304 pixels
Display aspect ratio : 2.35:1
Frame rate : 23.976 (24000/1001) FPS
Color space : YUV
Chroma subsampling : 4:2:0
Bit depth : 8 bits
Scan type : Progressive
Compression mode : Lossy
Bits/(Pixel*Frame) : 0.395
Stream size : 1.68 GiB (94%)
Writing library : XviD 67

Audio
ID : 1
Format : MPEG Audio
Format version : Version 1
Format profile : Layer 3
Mode : Joint stereo
Mode extension : MS Stereo
Codec ID : 55
Codec ID/Hint : MP3
Duration : 1 h 56 min
Bit rate mode : Constant
Bit rate : 128 kb/s
Channel(s) : 2 channels
Sampling rate : 48.0 kHz
Compression mode : Lossy
Stream size : 106 MiB (6%)
Alignment : Aligned on interleaves
Interleave, duration : 24 ms (0.58 video frame)
Interleave, preload duratio : 480 ms




Screenshots

Animali notturni (2016)

Animali notturni (2016)

Animali notturni (2016)