BBC - In Searh of Myths and Heroes (2005)

Posted By: Polik88
BBC - In Searh of Myths and Heroes (2005)

BBC - In Searh of Myths and Heroes (2005)
DVDRip | English | AVI/XVID 25.000 fps 1459 Kbps | 704x384 | AC3 192 Kbps 48.0 khz | 4x59mn | 4x701 MB
Genre: Documentary

Over the last twenty years, Michael Wood has captivated readers and viewers alike with his romantic journeys into the past from In Search of the Trojan Wars to his epic journeys in In the Footsteps of Alexander the Great and The Conquistadors. In this compelling TV series, In Search of Myths and Heroes, Michael goes in search of four of our most powerful myths: Shangri-la, the Golden Fleece, the Queen of Sheba, and the Holy Grail. His adventures take him to some of the most remote and exciting places on earth including Western Tibet, the mountains of Georgia and Caucasus, the plains of the Southern Iraq, to the coasts of Ethiopia Yemen and the Horn of Africa.

In Search of Myths and Heroes is divided into four sections:

The Search for Shangri-la - Michael explores the truth of the medieval Indian legend of a lost civilisation behind the western Himalayas - a place where the ancient wisdom of humanity was preserved to save it from our future. The legend was immortalised in James Hilton's novel about Shangri-la, and by Hollywood in Frank Capra's movie Lost Horizon. But why do such legends still captivate us today? And was there a real Shangri-la?

Jason and The Golden Fleece - Where does the ancient Greek legend of Jason's search for the Golden Fleece come from? The tale is the ultimate quest, older even than Homer's Iliad and Odyssey. But was there really an expedition beyond the limits of the known world back in the mists of prehistory, before the Trojan War? And why is the hero's quest one of the core human stories, from the first literature on earth, to the latest Hollywood epic?

The Queen of Sheba - What lies behind the Bible story of the Queen of Sheba, King Solomon, and the Ark of the Covenant? The tale is found in both the Jewish Bible and the Muslim Koran, and the Queen of Sheba is still revered today in the sacred books of the Ethiopians, who claim her as the founder of their nation: but who was she? And why was the trade route from the Holy Land and Egypt to the Horn of Africa so important to the ancients?

Arthur: The Once and Future King - What was the Holy Grail? How did the search for this ultimate religious symbol come to be connected with Arthur, the once and future king? Was there a real Grail? A real King Arthur? And why does the quest for the Grail, still obsess us even today, from New Agers and mystics to Monty Python and Indiana Jones?

Each journey opens up universal themes as Michael goes in search not only of the historical past and literal truth, but also of the mythic past and archetypal stories that reflect and have sustained human existence since the beginning of time.
General
Complete name : BBC.In.Search.of.Myths.and.Heroes.1of4.avi
Format : AVI
Format/Info : Audio Video Interleave
File size : 701 MiB
Duration : 59mn 1s
Overall bit rate : 1 661 Kbps
Writing application : VirtualDubMod 1.5.10.2 (build 2540/release)
Writing library : VirtualDubMod build 2540/release

Video
ID : 0
Format : MPEG-4 Visual
Format profile : Advanced Simple@L5
Format settings, BVOP : No
Format settings, QPel : No
Format settings, GMC : No warppoints
Format settings, Matrix : Default (H.263)
Codec ID : XVID
Codec ID/Hint : XviD
Duration : 59mn 1s
Bit rate : 1 459 Kbps
Width : 704 pixels
Height : 384 pixels
Display aspect ratio : 1.85:1
Frame rate : 25.000 fps
Color space : YUV
Chroma subsampling : 4:2:0
Bit depth : 8 bits
Scan type : Interlaced
Scan order : Bottom Field First
Compression mode : Lossy
Bits/(Pixel*Frame) : 0.216
Stream size : 616 MiB (88%)
Writing library : XviD 1.2.0SMP (UTC 2006-01-08)

Audio
ID : 1
Format : AC-3
Format/Info : Audio Coding 3
Mode extension : CM (complete main)
Format settings, Endianness : Big
Codec ID : 2000
Duration : 59mn 0s
Bit rate mode : Constant
Bit rate : 192 Kbps
Channel(s) : 2 channels
Channel positions : Front: L R
Sampling rate : 48.0 KHz
Bit depth : 16 bits
Compression mode : Lossy
Stream size : 81.0 MiB (12%)
Alignment : Split accross interleaves
Interleave, duration : 40 ms (1.00 video frame)
Interleave, preload duration : 500 ms

Screenshots

BBC - In Searh of Myths and Heroes (2005)

BBC - In Searh of Myths and Heroes (2005)

BBC - In Searh of Myths and Heroes (2005)

BBC - In Searh of Myths and Heroes (2005)

no mirrors please, Follow The Rules
Visit Polik88 Blog Here
no password