Tags
Language
Tags

The Haunted Airman (2006)

Posted By: RSU75
SD / DVD IMDb
The Haunted Airman (2006)

BBC Christmas Ghost Stories. The Haunted Airman (2006)
DVD Video | 1hr 08mn | PAL 16:9 | 720x576 | 2.67 Gb
DVDRip | MKV | AVC 720x576, ~ 1.9 Mbps | 1hr 08mn | 1.00 GB
English: AC3, 2 ch, 224 kbps | Subtitles: None
Genre: Drama, Thriller, War



Director: Chris Durlacher
Writers: Chris Durlacher, Dennis Wheatley (novel)
Stars: Julian Sands, Rachael Stirling, Robert Pattinson

Film Distributor: ABC/BBC

In World War II, the airman Toby Jugg is hit in the spine during an airborne attack and he becomes paraplegic. His aunt-in-law Julia Jugg is his only relative and sends him to rest in a clinic in the countryside. Toby is in love with Julia and writes several letters to her but she does not respond. Toby is haunted by shadows and bugs and Dr. Hal Burns, who is responsible for his treatment, complains that Toby does not open his feelings to him. One day, one intern goes to the town and brings a letter from Julia to Toby, and he finds that Dr. Burns is hiding his correspondence. When Julia is informed, she comes to the clinic to stay with Toby that seems to be mentally ill. One night, Dr. Burns gives a razor to Toby and tells him to do the right thing, trying to induce him to commit suicide. But late night Toby discovers the secret of Julia and Hal.

Extras:
- None




Title: BBC.ChristmasGhostStories.D5D9.TheHauntedAirman
Size: 2.67 Gb ( 2 803 570,00 KBytes ) - DVD-5
Enabled regions: 1, 2, 3, 4, 5, 6, 7, 8

VTS_01 :
Play Length: 00:00:14
Video: PAL 16:9 (720x576) VBR, Auto Letterboxed
Audio:
Not specified (Dolby AC3, 2 ch)

VTS_02 :
Play Length: 01:08:01
Video: PAL 16:9 (720x576) VBR, Auto Letterboxed
Audio:
Not specified (Dolby AC3, 2 ch)

VTS_03 :
Play Length: 00:01:23
Video: PAL 16:9 (720x576) VBR, Auto Letterboxed
Audio:
Not specified (LinearPCM, 2 ch)

VTS_04 :
Play Length: 00:00:45
Video: PAL 16:9 (720x576) VBR, Auto Letterboxed
Audio:
English (Dolby AC3, 2 ch)

VTS_05 :
Play Length: 00:00:58
Video: PAL 16:9 (720x576) VBR, Auto Letterboxed
Audio:
English (Dolby AC3, 2 ch)





General
Unique ID : 190330073924948245665252805892024914648 (0x8F303D2683F5BAEBAB550908452952D8)
Complete name : F:\BBC.ChristmasGhostStories.D5D9.TheHauntedAirman.Dr\BBC.ChristmasGhostStories.D5D9.TheHauntedAirman.Dr.mkv
Format : Matroska
Format version : Version 4 / Version 2
File size : 1.00 GiB
Duration : 1 h 7 min
Overall bit rate : 2 116 kb/s
Movie name : Release RSU75
Encoded date : UTC 2020-01-02 05:44:30
Writing application : mkvmerge v6.6.0 ('The Edge Of The In Between') built on Dec 1 2013 17:55:00
Writing library : libebml v1.3.0 + libmatroska v1.4.1

Video
ID : 1
Format : AVC
Format/Info : Advanced Video Codec
Format profile : High@L4.1
Format settings : CABAC / 4 Ref Frames
Format settings, CABAC : Yes
Format settings, ReFrames : 4 frames
Codec ID : V_MPEG4/ISO/AVC
Duration : 1 h 7 min
Bit rate : 1 900 kb/s
Width : 720 pixels
Height : 576 pixels
Display aspect ratio : 16:9
Frame rate mode : Constant
Frame rate : 25.000 FPS
Standard : PAL
Color space : YUV
Chroma subsampling : 4:2:0
Bit depth : 8 bits
Scan type : Progressive
Bits/(Pixel*Frame) : 0.183
Stream size : 898 MiB (87%)
Writing library : x264 core 148 r2643 5c65704
Encoding settings : cabac=1 / ref=4 / deblock=1:0:0 / analyse=0x3:0x113 / me=umh / subme=8 / psy=1 / psy_rd=1.00:0.00 / mixed_ref=1 / me_range=24 / chroma_me=1 / trellis=1 / 8x8dct=1 / cqm=0 / deadzone=21,11 / fast_pskip=1 / chroma_qp_offset=-2 / threads=3 / lookahead_threads=1 / sliced_threads=0 / nr=0 / decimate=1 / interlaced=0 / bluray_compat=0 / constrained_intra=0 / bframes=3 / b_pyramid=0 / b_adapt=2 / b_bias=0 / direct=3 / weightb=1 / open_gop=0 / weightp=2 / keyint=250 / keyint_min=25 / scenecut=40 / intra_refresh=0 / rc_lookahead=40 / rc=abr / mbtree=1 / bitrate=1900 / ratetol=1.0 / qcomp=0.60 / qpmin=10 / qpmax=51 / qpstep=4 / ip_ratio=1.41 / aq=1:1.00
Language : English
Default : Yes
Forced : No

Audio
ID : 2
Format : AC-3
Format/Info : Audio Coding 3
Commercial name : Dolby Digital
Codec ID : A_AC3
Duration : 1 h 7 min
Bit rate mode : Constant
Bit rate : 224 kb/s
Channel(s) : 2 channels
Channel layout : L R
Sampling rate : 48.0 kHz
Frame rate : 31.250 FPS (1536 SPF)
Bit depth : 16 bits
Compression mode : Lossy
Stream size : 109 MiB (11%)
Title : Stereo
Language : English
Service kind : Complete Main
Default : Yes
Forced : No

Menu
00:00:00.000 : en:Chapter 01
00:00:00.560 : en:Chapter 02
00:01:21.160 : en:Chapter 03
00:06:54.480 : en:Chapter 04
00:13:54.640 : en:Chapter 05
00:21:57.720 : en:Chapter 06
00:28:57.360 : en:Chapter 07
00:35:32.040 : en:Chapter 08
00:43:07.560 : en:Chapter 09
00:50:07.720 : en:Chapter 10
00:55:17.640 : en:Chapter 11
00:59:57.920 : en:Chapter 12
01:06:57.040 : en:Chapter 13




Screenshots DVD (click to enlarge to original size):

The Haunted Airman (2006)

The Haunted Airman (2006)

The Haunted Airman (2006)

The Haunted Airman (2006)

The Haunted Airman (2006)



Thanks to original uploader


Screenshots DVDRip (click to enlarge to original size):

The Haunted Airman (2006)






If you like this release please visit my blog
In it you will find "BBC Christmas Ghost Stories" releases (DVD, DVDRip)