BBC - Dancing the Nutcracker: Inside the Royal Ballet (2016)

Posted By: notbanned
720p (HD) / HDTV IMDb
BBC - Dancing the Nutcracker: Inside the Royal Ballet (2016)

BBC - Dancing the Nutcracker: Inside the Royal Ballet (2016)
HDTV | 1280x720 | .MKV/AVC @ 2509 Kbps | 1 h 28 min | 1.64 GiB
Audio: English AAC 128 kbps, 2 channels | Subs: English
Genre: Documentary

The Royal Ballet gives full access behind the scenes for a landmark documentary as they prepare for the season's yuletide production. This year's Nutcracker marks the debut of one of Britain's brightest young stars, Francesca Hayward, in one of the most famous roles in ballet (and every little girl's dream) - the Sugar Plum Fairy. We follow her as she prepares to dance the role that made her want to be a ballerina when she was just three years old. The production also sees the debut of numerous young dancers across the company, from its youngest stars at the Royal Ballet School playing the roles of party children and battling mice to the final year students dancing as snowflakes on the journey to the Land of the Sweets. With unprecedented access to the creative departments, from set designers to tutu makers, and including beautiful performance sequences, this film takes the viewer directly into the Royal Ballet during the busiest and most magical time of the year.

General
Unique ID : 277134046306089284495237874333361472244 (0xD07E136A2F72122895B53163920D82F4)
Complete name : BBC.Dancing.the.Nutcracker.Inside.the.Royal.Ballet.720p.mkv
Format : Matroska
Format version : Version 4 / Version 2
File size : 1.64 GiB
Duration : 1 h 28 min
Overall bit rate : 2 639 kb/s

Video
ID : 1
Format : AVC
Format/Info : Advanced Video Codec
Format profile : High@L3.1
Format settings, CABAC : Yes
Format settings, ReFrames : 4 frames
Codec ID : V_MPEG4/ISO/AVC
Duration : 1 h 28 min
Bit rate : 2 509 kb/s
Width : 1 280 pixels
Height : 720 pixels
Display aspect ratio : 16:9
Frame rate mode : Constant
Frame rate : 25.000 FPS
Color space : YUV
Chroma subsampling : 4:2:0
Bit depth : 8 bits
Scan type : Progressive
Bits/(Pixel*Frame) : 0.109
Stream size : 1.56 GiB (95%)
Encoding settings : cabac=1 / ref=3 / deblock=1:0:0 / analyse=0x3:0x113 / me=umh / subme=9 / psy=1 / psy_rd=1.00:0.00 / mixed_ref=1 / me_range=24 / chroma_me=1 / trellis=1 / 8x8dct=1 / cqm=0 / deadzone=21,11 / fast_pskip=0 / chroma_qp_offset=-2 / threads=3 / lookahead_threads=1 / sliced_threads=0 / nr=0 / decimate=1 / interlaced=0 / bluray_compat=0 / constrained_intra=0 / bframes=6 / b_pyramid=2 / b_adapt=2 / b_bias=0 / direct=1 / weightb=1 / open_gop=0 / weightp=2 / keyint=250 / keyint_min=25 / scenecut=40 / intra_refresh=0 / rc_lookahead=40 / rc=crf / mbtree=1 / crf=20.0 / qcomp=0.60 / qpmin=0 / qpmax=69 / qpstep=4 / ip_ratio=1.40 / aq=1:1.00
Language : English
Default : Yes
Forced : No
Color range : Limited
Color primaries : BT.709
Transfer characteristics : BT.709
Matrix coefficients : BT.709

Audio
ID : 2
Format : AAC
Format/Info : Advanced Audio Codec
Format profile : LC
Codec ID : A_AAC
Duration : 1 h 28 min
Bit rate : 128 kb/s
Channel(s) : 2 channels
Channel positions : Front: L R
Sampling rate : 48.0 kHz
Frame rate : 46.875 FPS (1024 spf)
Compression mode : Lossy
Delay relative to video : 9 ms
Stream size : 81.3 MiB (5%)
Language : English
Default : Yes
Forced : No

Text
ID : 3
Format : UTF-8
Codec ID : S_TEXT/UTF8
Codec ID/Info : UTF-8 Plain Text
Duration : 1 h 28 min
Bit rate : 75 b/s
Count of elements : 1140
Stream size : 49.0 KiB (0%)
Language : English
Default : No
Forced : No


Screenshots:

BBC - Dancing the Nutcracker: Inside the Royal Ballet (2016)

BBC - Dancing the Nutcracker: Inside the Royal Ballet (2016)

BBC - Dancing the Nutcracker: Inside the Royal Ballet (2016)

BBC - Dancing the Nutcracker: Inside the Royal Ballet (2016)