Tags
Language
Tags
April 2024
Su Mo Tu We Th Fr Sa
31 1 2 3 4 5 6
7 8 9 10 11 12 13
14 15 16 17 18 19 20
21 22 23 24 25 26 27
28 29 30 1 2 3 4

BBC - Eddie Izzard: Marathon Man for Sport Relief (2016)

Posted By: notbanned
720p (HD) / HDTV
BBC - Eddie Izzard: Marathon Man for Sport Relief (2016)

BBC - Eddie Izzard: Marathon Man for Sport Relief (2016)
HDTV | 1280x720 | .MP4/AVC @ 3000 Kbps | 59 min 9 s | 1.31 GiB
Audio: English AAC 160 kbps, 2 channels | Subs: English
Genre: Documentary

Eddie Izzard pushes his body and sense of humour to the limit for Sport Relief as he takes on an immense challenge - travelling to South Africa to run 27 marathons in 27 days to mark the 27 years that his hero Nelson Mandela spent in prison.
It is a gruelling, uplifting and hilarious journey through baking heat, high roads and hospitals - but can Eddie make it to the final finish line?

General
Complete name : BBC.Eddie.Izzard.Marathon.Man.For.Sport.Relief.720p.mp4
Format : MPEG-4
Format profile : Base Media
Codec ID : isom (isom)
File size : 1.31 GiB
Duration : 59 min 9 s
Overall bit rate mode : Variable
Overall bit rate : 3 168 kb/s

Video
ID : 1
Format : AVC
Format/Info : Advanced Video Codec
Format profile : High@L4.1
Format settings, CABAC : Yes
Format settings, ReFrames : 4 frames
Codec ID : avc1
Codec ID/Info : Advanced Video Coding
Duration : 59 min 9 s
Bit rate : 3 000 kb/s
Maximum bit rate : 11.8 Mb/s
Width : 1 280 pixels
Height : 720 pixels
Display aspect ratio : 16:9
Frame rate mode : Constant
Frame rate : 25.000 FPS
Color space : YUV
Chroma subsampling : 4:2:0
Bit depth : 8 bits
Scan type : Progressive
Bits/(Pixel*Frame) : 0.130
Stream size : 1.24 GiB (95%)
Encoding settings : cabac=1 / ref=1 / deblock=1:0:0 / analyse=0x3:0x3 / me=dia / subme=1 / psy=1 / psy_rd=1.00:0.00 / mixed_ref=0 / me_range=16 / chroma_me=1 / trellis=0 / 8x8dct=1 / cqm=0 / deadzone=21,11 / fast_pskip=1 / chroma_qp_offset=0 / threads=3 / lookahead_threads=1 / sliced_threads=0 / nr=0 / decimate=1 / interlaced=0 / bluray_compat=0 / constrained_intra=0 / bframes=3 / b_pyramid=2 / b_adapt=1 / b_bias=0 / direct=1 / weightb=1 / open_gop=0 / weightp=1 / keyint=250 / keyint_min=25 / scenecut=40 / intra_refresh=0 / rc_lookahead=0 / rc=abr / mbtree=0 / bitrate=3000 / ratetol=1.0 / qcomp=0.60 / qpmin=0 / qpmax=69 / qpstep=4 / vbv_maxrate=62500 / vbv_bufsize=78125 / nal_hrd=none / filler=0 / ip_ratio=1.40 / pb_ratio=1.30 / aq=1:1.00
Encoded date : UTC 2016-03-29 17:25:06
Tagged date : UTC 2016-03-30 12:42:42
Color range : Limited
Color primaries : BT.709
Transfer characteristics : BT.709
Matrix coefficients : BT.709

Audio
ID : 2
Format : AAC
Format/Info : Advanced Audio Codec
Format profile : LC
Codec ID : 40
Duration : 59 min 9 s
Bit rate mode : Variable
Bit rate : 160 kb/s
Maximum bit rate : 174 kb/s
Channel(s) : 2 channels
Channel positions : Front: L R
Sampling rate : 48.0 kHz
Frame rate : 46.875 FPS (1024 spf)
Compression mode : Lossy
Stream size : 67.9 MiB (5%)
Language : English
Encoded date : UTC 2016-03-30 12:42:24
Tagged date : UTC 2016-03-30 12:42:42

Text
ID : 3
Format : Timed Text
Codec ID : tx3g
Duration : 59 min 5 s
Bit rate mode : Variable
Bit rate : 94 b/s
Stream size : 40.5 KiB (0%)
Forced : No
Encoded date : UTC 2016-03-30 12:42:42
Tagged date : UTC 2016-03-30 12:42:42


Screenshots:

BBC - Eddie Izzard: Marathon Man for Sport Relief (2016)

BBC - Eddie Izzard: Marathon Man for Sport Relief (2016)

BBC - Eddie Izzard: Marathon Man for Sport Relief (2016)

BBC - Eddie Izzard: Marathon Man for Sport Relief (2016)