BBC -James May: My Sisters' Top Toys (2007)

Posted By: notbanned
720p (HD) / HDTV
BBC -James May: My Sisters' Top Toys (2007)

BBC - James May: My Sisters' Top Toys (2007)
HDTV | 1280x720 | .MP4/AVC @ 2950 Kbps | 57 min 32 s | 1.26 GiB
Audio: English AAC 160 kbps, 2 channels | Subs: English
Genre: Documentary

James May celebrates the toys that made his childhood hell, as he opens the lid on his sisters' toy box. Sandwiched between elder sister Jane and younger one Sarah, many of their favourites he couldn't understand, or stand the sight of, or see the point of. This is both a tale of brotherly revenge, and the story from the other side of the toy room. Each toy prompts a story - a history told via archive, anecdote and the occasional obsessive collector or inventor. Dolls, dolls' houses, dolls' prams, Tiny Tears, Girls' World, Look and Learn, Major Morgan the electronic organ get the May inspection… and Sisters Jane and Sarah dish the dirt on their brother and their toy memories. James blows up the Tree House Family, races in a converted Silver Cross pram, tries out his hair and make-up skills on Girls World, projects Spirograph on the side of the Royal Festival Hall, and appears in a Fuzzy Felt animated film… all jolly good clean fun.

General
Complete name : BBC.James.May.My.Sisters.Top.Toys.720p.mp4
Format : MPEG-4
Format profile : Base Media
Codec ID : isom (isom)
File size : 1.26 GiB
Duration : 57 min 32 s
Overall bit rate mode : Variable
Overall bit rate : 3 130 kb/s

Video
ID : 1
Format : AVC
Format/Info : Advanced Video Codec
Format profile : High@L4.1
Format settings, CABAC : Yes
Format settings, ReFrames : 4 frames
Codec ID : avc1
Codec ID/Info : Advanced Video Coding
Duration : 57 min 32 s
Bit rate : 2 950 kb/s
Maximum bit rate : 12.4 Mb/s
Width : 1 280 pixels
Height : 720 pixels
Display aspect ratio : 16:9
Frame rate mode : Constant
Frame rate : 25.000 FPS
Color space : YUV
Chroma subsampling : 4:2:0
Bit depth : 8 bits
Scan type : Progressive
Bits/(Pixel*Frame) : 0.128
Stream size : 1.19 GiB (95%)
Writing library : x264 core 130 r2273 b3065e6
Encoding settings : cabac=1 / ref=1 / deblock=1:0:0 / analyse=0x3:0x113 / me=hex / subme=2 / psy=1 / psy_rd=1.00:0.00 / mixed_ref=0 / me_range=16 / chroma_me=1 / trellis=0 / 8x8dct=1 / cqm=0 / deadzone=21,11 / fast_pskip=1 / chroma_qp_offset=0 / threads=6 / lookahead_threads=2 / sliced_threads=0 / nr=0 / decimate=1 / interlaced=0 / bluray_compat=0 / constrained_intra=0 / bframes=3 / b_pyramid=2 / b_adapt=1 / b_bias=0 / direct=1 / weightb=1 / open_gop=0 / weightp=1 / keyint=250 / keyint_min=25 / scenecut=40 / intra_refresh=0 / rc_lookahead=10 / rc=abr / mbtree=1 / bitrate=2950 / ratetol=1.0 / qcomp=0.60 / qpmin=0 / qpmax=69 / qpstep=4 / vbv_maxrate=62500 / vbv_bufsize=78125 / nal_hrd=none / ip_ratio=1.40 / aq=1:1.00
Encoded date : UTC 2017-12-26 16:14:28
Tagged date : UTC 2017-12-26 17:16:00
Color range : Limited
Color primaries : BT.709
Transfer characteristics : BT.709
Matrix coefficients : BT.709

Audio
ID : 2
Format : AAC
Format/Info : Advanced Audio Codec
Format profile : LC
Codec ID : 40
Duration : 57 min 32 s
Bit rate mode : Variable
Bit rate : 160 kb/s
Maximum bit rate : 269 kb/s
Channel(s) : 2 channels
Channel positions : Front: L R
Sampling rate : 48.0 kHz
Frame rate : 46.875 FPS (1024 spf)
Compression mode : Lossy
Stream size : 65.8 MiB (5%)
Encoded date : UTC 2017-12-26 17:15:53
Tagged date : UTC 2017-12-26 17:16:00

Text
ID : 3
Format : Timed Text
Codec ID : tx3g
Duration : 57 min 9 s
Bit rate mode : Variable
Bit rate : 215 b/s
Stream size : 89.9 KiB (0%)
Forced : No
Encoded date : UTC 2017-12-26 17:15:59
Tagged date : UTC 2017-12-26 17:16:00


Screenshots:

BBC -James May: My Sisters' Top Toys (2007)

BBC -James May: My Sisters' Top Toys (2007)

BBC -James May: My Sisters' Top Toys (2007)

BBC -James May: My Sisters' Top Toys (2007)