Tags
Language
Tags

BBC - Planet Earth II: A World of Wonder (2016)

Posted By: notbanned
BBC - Planet Earth II: A World of Wonder (2016)

BBC - Planet Earth II: A World of Wonder (2016)
PDTV | 832x468 | .MP4/AVC @ 1206 Kbps | 1h 28mn | 850 MiB
Audio: English AAC 128 kbps, 2 channels | Subs: None
Genre: Documentary

A compilation episode of the wildlife documentary series presented by David Attenborough, uncovering the secrets of animals across the globe.


General
Complete name : BBC.Planet.Earth.II.A.World.of.Wonder.PDTV.mp4
Format : MPEG-4
Format profile : Base Media
Codec ID : isom
File size : 850 MiB
Duration : 1h 28mn
Overall bit rate mode : Variable
Overall bit rate : 1 336 Kbps

Video
ID : 1
Format : AVC
Format/Info : Advanced Video Codec
Format profile : Main@L3.1
Format settings, CABAC : Yes
Format settings, ReFrames : 1 frame
Format settings, GOP : M=1, N=12
Codec ID : avc1
Codec ID/Info : Advanced Video Coding
Duration : 1h 28mn
Bit rate : 1 206 Kbps
Maximum bit rate : 5 670 Kbps
Width : 832 pixels
Height : 468 pixels
Display aspect ratio : 16:9
Frame rate mode : Constant
Frame rate : 25.000 fps
Color space : YUV
Chroma subsampling : 4:2:0
Bit depth : 8 bits
Scan type : Progressive
Bits/(Pixel*Frame) : 0.124
Stream size : 767 MiB (90%)
Encoded date : UTC 2017-01-01 21:24:09
Tagged date : UTC 2017-01-01 22:18:16

Audio
ID : 2
Format : AAC
Format/Info : Advanced Audio Codec
Format profile : LC
Codec ID : 40
Duration : 1h 28mn
Bit rate mode : Variable
Bit rate : 128 Kbps
Maximum bit rate : 158 Kbps
Channel(s) : 2 channels
Channel positions : Front: L R
Sampling rate : 48.0 KHz
Compression mode : Lossy
Stream size : 81.4 MiB (10%)
Encoded date : UTC 2017-01-01 22:18:07
Tagged date : UTC 2017-01-01 22:18:16

Text
ID : 3
Format : Timed Text
Codec ID : tx3g
Duration : 1h 27mn
Bit rate mode : Variable
Bit rate : 39 bps
Stream size : 24.8 KiB (0%)
Encoded date : UTC 2017-01-01 22:18:16
Tagged date : UTC 2017-01-01 22:18:16


Screenshots:

BBC - Planet Earth II: A World of Wonder (2016)

BBC - Planet Earth II: A World of Wonder (2016)

BBC - Planet Earth II: A World of Wonder (2016)

BBC - Planet Earth II: A World of Wonder (2016)