BBC - The Girl from Ipanema: Brazil, Bossa Nova and the Beach (2016)

Posted By: notbanned
720p (HD) / HDTV
BBC - The Girl from Ipanema: Brazil, Bossa Nova and the Beach (2016)

BBC - The Girl from Ipanema: Brazil, Bossa Nova and the Beach (2016)
HDTV | 1280x720 | .MKV/AVC @ 2301 Kbps | 58 min 36 s | 1019 MiB
Audio: English AAC 127 kbps, 2 channels | Subs: English
Genre: Documentary

Katie Derham travels to Rio de Janeiro (where her father was born) to explore the story behind Brazil's most famous and enduring song. Written in 1962 by Antonio Carlos Jobim with lyrics by Vinicius de Moraes, with a later English translation by Norman Gimbel, The Girl from Ipanema defines the moment Brazil charmed the world stage with a laidback song about a haunting woman. It's a vibrant musical journey to the stunning beaches, majestic mountains and buzzy clubs of Rio, where Katie meets key musicians and architects of bossa nova (including Carlos Lyra, Roberto Menescal, Joyce, Daniel Jobim and Marcos Valle), witnesses intimate musical performances, and uncovers the genesis and story behind Brazil's most successful musical export. The Girl from Ipanema is quintessential bossa nova and tracing its roots reveals the fascinating story of this unique musical style. Invented by a gang of young bohemians in Rio in the late 1950s, bossa grew into a 1960s phenomenon, especially in the US where it became a youth craze and later a significant part of the modern jazz repertoire. The Girl from Ipanema as sung by Astrud Gilberto with sax from Stan Getz went top 5 in the US and became a major international hit in 1964. Nothing sums up Rio as well as the simple and seductive lyrics to The Girl From Ipanema and, as the eyes of the world look to Rio once more this summer, what better way to get to understand the city, its people and its mid-60s zeitgeist than through its most famous song?

General
Unique ID : 181213238287226869681011242307825163947 (0x8854667317BA16F4B5E6E8E07C83DEAB)
Complete name : BBC.The.Girl.from.Ipanema.720p.mkv
Format : Matroska
Format version : Version 4 / Version 2
File size : 1 019 MiB
Duration : 58 min 36 s
Overall bit rate : 2 430 kb/s

Video
ID : 1
Format : AVC
Format/Info : Advanced Video Codec
Format profile : High@L4.1
Format settings, CABAC : Yes
Format settings, ReFrames : 6 frames
Codec ID : V_MPEG4/ISO/AVC
Duration : 58 min 36 s
Bit rate : 2 301 kb/s
Width : 1 280 pixels
Height : 720 pixels
Display aspect ratio : 16:9
Frame rate mode : Constant
Frame rate : 25.000 FPS
Color space : YUV
Chroma subsampling : 4:2:0
Bit depth : 8 bits
Scan type : Progressive
Bits/(Pixel*Frame) : 0.100
Stream size : 965 MiB (95%)
Writing library : x264 core 148 r2705 3f5ed56
Encoding settings : cabac=1 / ref=6 / deblock=1:0:0 / analyse=0x3:0x113 / me=umh / subme=9 / psy=1 / psy_rd=1.00:0.00 / mixed_ref=1 / me_range=24 / chroma_me=1 / trellis=1 / 8x8dct=1 / cqm=0 / deadzone=21,11 / fast_pskip=0 / chroma_qp_offset=-2 / threads=3 / lookahead_threads=1 / sliced_threads=0 / nr=0 / decimate=1 / interlaced=0 / bluray_compat=0 / constrained_intra=0 / bframes=5 / b_pyramid=2 / b_adapt=2 / b_bias=0 / direct=1 / weightb=1 / open_gop=0 / weightp=2 / keyint=250 / keyint_min=25 / scenecut=40 / intra_refresh=0 / rc_lookahead=40 / rc=crf / mbtree=1 / crf=20.0 / qcomp=0.60 / qpmin=0 / qpmax=69 / qpstep=4 / ip_ratio=1.40 / aq=1:1.00
Language : English
Default : Yes
Forced : No

Audio
ID : 2
Format : AAC
Format/Info : Advanced Audio Codec
Format profile : LC
Codec ID : A_AAC
Duration : 58 min 36 s
Bit rate : 127 kb/s
Channel(s) : 2 channels
Channel positions : Front: L R
Sampling rate : 48.0 kHz
Frame rate : 46.875 FPS (1024 spf)
Compression mode : Lossy
Delay relative to video : 9 ms
Stream size : 53.3 MiB (5%)
Language : English
Default : Yes
Forced : No

Text
ID : 3
Format : UTF-8
Codec ID : S_TEXT/UTF8
Codec ID/Info : UTF-8 Plain Text
Duration : 58 min 0 s
Bit rate : 76 b/s
Count of elements : 792
Stream size : 32.5 KiB (0%)
Language : English
Default : No
Forced : No


Screenshots:

BBC - The Girl from Ipanema: Brazil, Bossa Nova and the Beach (2016)

BBC - The Girl from Ipanema: Brazil, Bossa Nova and the Beach (2016)

BBC - The Girl from Ipanema: Brazil, Bossa Nova and the Beach (2016)

BBC - The Girl from Ipanema: Brazil, Bossa Nova and the Beach (2016)