Subcategories

BBC The Sky at Night - Mercury: Problem Child (2016)

Posted By: notbanned
BBC The Sky at Night - Mercury: Problem Child (2016)

BBC The Sky at Night - Mercury: Problem Child (2016)
DVDRip | MKV | 720x576 | AVC@2464 Kbps | English AC3@192 Kbps | 2 channels | 28mn 56s | 550 MiB
HDTV | MKV | 1920x1080 | AVC@4424 Kbps | English AAC@128 Kbps | 2 channels | 28mn 56s | 943 MiB
Genre: Documentary

May 9th 2016 sees one of the astronomical highlights of the year - a transit of Mercury across the sun, the best opportunity to observe this phenomenon until 2049. To mark the event, the Sky at Night attempts to explain the many mysteries of Mercury - a planet so bizarre that it is sometimes described as the 'problem child' of the solar system. Surface temperatures exceed 450 degrees but it also has patches of ice, its day is twice as long as its year, and it is a planet that appears to be shrinking.


General
Unique ID : 234440329890147248070843108383684789596 (0xB05F90ADB821E24B80DCBF795807855C)
Complete name : BBC.The.Sky.at.Night.Mercury.The.Problem.chld.of.the.Solar.System.576p.mkv
Format : Matroska
Format version : Version 4 / Version 2
File size : 550 MiB
Duration : 28mn 56s
Overall bit rate : 2 659 Kbps

Video
ID : 1
Format : AVC
Format/Info : Advanced Video Codec
Format profile : High@L3.1
Format settings, CABAC : No
Format settings, ReFrames : 2 frames
Codec ID : V_MPEG4/ISO/AVC
Duration : 28mn 56s
Bit rate : 2 464 Kbps
Width : 720 pixels
Height : 576 pixels
Display aspect ratio : 16:9
Original display aspect ratio : 5:4
Frame rate mode : Constant
Frame rate : 25.000 fps
Standard : PAL
Color space : YUV
Chroma subsampling : 4:2:0
Bit depth : 8 bits
Scan type : Progressive
Bits/(Pixel*Frame) : 0.238
Stream size : 500 MiB (91%)
Writing library : x264 core 146 r2538bm 121396c
Encoding settings : cabac=0 / ref=2 / deblock=0:0:0 / analyse=0x3:0x113 / me=hex / subme=6 / psy=1 / psy_rd=1.00:0.00 / mixed_ref=1 / me_range=16 / chroma_me=1 / trellis=1 / 8x8dct=1 / cqm=0 / deadzone=21,11 / fast_pskip=1 / chroma_qp_offset=-2 / threads=8 / lookahead_threads=8 / sliced_threads=1 / slices=8 / nr=0 / decimate=1 / interlaced=0 / bluray_compat=0 / constrained_intra=0 / bframes=0 / weightp=0 / keyint=250 / keyint_min=25 / scenecut=40 / intra_refresh=0 / rc=2pass / mbtree=0 / bitrate=2464 / ratetol=1.0 / qcomp=0.60 / qpmin=0 / qpmax=69 / qpstep=4 / cplxblur=20.0 / qblur=0.5 / ip_ratio=1.40 / aq=1:1.00
Language : English
Default : Yes
Forced : No

Audio
ID : 2
Format : AC-3
Format/Info : Audio Coding 3
Mode extension : CM (complete main)
Format settings, Endianness : Big
Codec ID : A_AC3
Duration : 28mn 56s
Bit rate mode : Constant
Bit rate : 192 Kbps
Channel(s) : 2 channels
Channel positions : Front: L R
Sampling rate : 48.0 KHz
Compression mode : Lossy
Stream size : 39.8 MiB (7%)
Language : English
Default : Yes
Forced : No

Text
ID : 3
Format : UTF-8
Codec ID : S_TEXT/UTF8
Codec ID/Info : UTF-8 Plain Text
Language : English
Default : Yes
Forced : No


General
Unique ID : 238702681212649941042010521506390910259 (0xB39476D2E1A9DE8094D93E5B6C76A533)
Complete name : BBC.The.Sky.at.Night.2016.Mercury.Problem.Child.1080p.mkv
Format : Matroska
Format version : Version 4 / Version 2
File size : 943 MiB
Duration : 28mn 56s
Overall bit rate : 4 557 Kbps

Video
ID : 1
Format : AVC
Format/Info : Advanced Video Codec
Format profile : High@L4.1
Format settings, CABAC : Yes
Format settings, ReFrames : 4 frames
Codec ID : V_MPEG4/ISO/AVC
Duration : 28mn 56s
Width : 1 920 pixels
Height : 1 080 pixels
Display aspect ratio : 16:9
Frame rate mode : Constant
Frame rate : 25.000 fps
Color space : YUV
Chroma subsampling : 4:2:0
Bit depth : 8 bits
Scan type : Progressive
Writing library : x264 core 148 r2692 64f4e24
Encoding settings : cabac=1 / ref=4 / deblock=1:0:0 / analyse=0x3:0x113 / me=umh / subme=9 / psy=1 / psy_rd=1.00:0.00 / mixed_ref=1 / me_range=32 / chroma_me=1 / trellis=1 / 8x8dct=1 / cqm=0 / deadzone=21,11 / fast_pskip=0 / chroma_qp_offset=-2 / threads=3 / lookahead_threads=1 / sliced_threads=0 / nr=0 / decimate=1 / interlaced=0 / bluray_compat=0 / constrained_intra=0 / bframes=6 / b_pyramid=2 / b_adapt=2 / b_bias=0 / direct=1 / weightb=1 / open_gop=0 / weightp=2 / keyint=250 / keyint_min=25 / scenecut=40 / intra_refresh=0 / rc_lookahead=40 / rc=crf / mbtree=1 / crf=21.0 / qcomp=0.60 / qpmin=0 / qpmax=69 / qpstep=4 / ip_ratio=1.40 / aq=1:1.00
Language : English
Default : Yes
Forced : No

Audio
ID : 2
Format : AAC
Format/Info : Advanced Audio Codec
Format profile : LC
Codec ID : A_AAC
Duration : 28mn 56s
Channel(s) : 2 channels
Channel positions : Front: L R
Sampling rate : 48.0 KHz
Compression mode : Lossy
Delay relative to video : 9ms
Language : English
Default : Yes
Forced : No

Text
ID : 3
Format : UTF-8
Codec ID : S_TEXT/UTF8
Codec ID/Info : UTF-8 Plain Text
Language : English
Default : No
Forced : No


Screenshots DVDRip:

BBC The Sky at Night - Mercury: Problem Child (2016)

BBC The Sky at Night - Mercury: Problem Child (2016)

BBC The Sky at Night - Mercury: Problem Child (2016)

BBC The Sky at Night - Mercury: Problem Child (2016)

Screenshots HDTV:

BBC The Sky at Night - Mercury: Problem Child (2016)

BBC The Sky at Night - Mercury: Problem Child (2016)

BBC The Sky at Night - Mercury: Problem Child (2016)

BBC The Sky at Night - Mercury: Problem Child (2016)