Bad Santa 2 (2016)

Posted By: Without
Bad Santa 2 (2016)

Bad Santa 2 (2016)
BDRip 720p | MKV | 1280x696 | AVC@5088 kb/s | English DTS@1509 kb/s | 6 channels | 1 h 34 min | 4.37 GB
Genre: Comedy, Crime, Drama

Fueled by cheap whiskey, greed and hatred, Willie teams up once again with his angry little sidekick, Marcus, to knock off a Chicago charity on Christmas Eve.



General
Unique ID : 222493221291871689960355978850302546416 (0xA762A2BF42F2C393B4E92B367A75D1F0)
Complete name : Bad.Santa.2.2016.UNRATED.720p.BluRay.x264-DRONES\Bad.Santa.2.2016.UNRATED.720p.BluRay.x264-DRONES.mkv
Format : Matroska
Format version : Version 4 / Version 2
File size : 4.37 GiB
Duration : 1 h 34 min
Overall bit rate : 6 597 kb/s
Encoded date : UTC 2017-02-08 06:04:00
Writing application : mkvmerge v8.3.0 ('Over the Horizon') 64bit
Writing library : libebml v1.3.1 + libmatroska v1.4.2

Video
ID : 1
Format : AVC
Format/Info : Advanced Video Codec
Format profile : High@L4.1
Format settings, CABAC : Yes
Format settings, ReFrames : 5 frames
Codec ID : V_MPEG4/ISO/AVC
Duration : 1 h 34 min
Bit rate : 5 088 kb/s
Width : 1 280 pixels
Height : 696 pixels
Display aspect ratio : 1.85:1
Frame rate mode : Constant
Frame rate : 23.976 FPS
Color space : YUV
Chroma subsampling : 4:2:0
Bit depth : 8 bits
Scan type : Progressive
Bits/(Pixel*Frame) : 0.238
Stream size : 3.37 GiB (77%)
Writing library : x264 core 148 r2744 b97ae06
Encoding settings : cabac=1 / ref=5 / deblock=1:0:0 / analyse=0x3:0x133 / me=umh / subme=7 / psy=1 / psy_rd=1.00:0.00 / mixed_ref=1 / me_range=16 / chroma_me=1 / trellis=1 / 8x8dct=1 / cqm=0 / deadzone=21,11 / fast_pskip=0 / chroma_qp_offset=-2 / threads=18 / lookahead_threads=3 / sliced_threads=0 / nr=0 / decimate=1 / interlaced=0 / bluray_compat=0 / constrained_intra=0 / bframes=3 / b_pyramid=2 / b_adapt=1 / b_bias=0 / direct=1 / weightb=1 / open_gop=0 / weightp=2 / keyint=250 / keyint_min=23 / scenecut=40 / intra_refresh=0 / rc_lookahead=40 / rc=2pass / mbtree=1 / bitrate=5088 / ratetol=1.0 / qcomp=0.60 / qpmin=0 / qpmax=69 / qpstep=4 / cplxblur=20.0 / qblur=0.5 / ip_ratio=1.40 / aq=1:1.00
Language : English
Default : Yes
Forced : No

Audio
ID : 2
Format : DTS
Format/Info : Digital Theater Systems
Mode : 16
Format settings, Endianness : Big
Codec ID : A_DTS
Duration : 1 h 34 min
Bit rate mode : Constant
Bit rate : 1 509 kb/s
Channel(s) : 6 channels
Channel positions : Front: L C R, Side: L R, LFE
Sampling rate : 48.0 kHz
Frame rate : 93.750 FPS (512 spf)
Bit depth : 24 bits
Compression mode : Lossy
Stream size : 1 024 MiB (23%)
Language : English
Default : Yes
Forced : No

Menu
00:00:00.000 : en:00:00:00.000
00:05:53.228 : en:00:05:53.228
00:11:00.743 : en:00:11:00.743
00:16:22.857 : en:00:16:22.857
00:20:14.213 : en:00:20:14.213
00:25:34.700 : en:00:25:34.700
00:29:40.445 : en:00:29:40.445
00:33:51.696 : en:00:33:51.696
00:36:57.132 : en:00:36:57.132
00:41:20.019 : en:00:41:20.019
00:44:49.812 : en:00:44:49.812
00:52:09.334 : en:00:52:09.334
01:00:33.546 : en:01:00:33.546
01:05:54.158 : en:01:05:54.158
01:13:17.977 : en:01:13:17.977
01:17:48.497 : en:01:17:48.497
01:21:58.205 : en:01:21:58.205
01:25:43.221 : en:01:25:43.221


BDRip 720p Screenshots

Bad Santa 2 (2016)

Bad Santa 2 (2016)

Bad Santa 2 (2016)


Come Visit My Blog (•‿•)