Barakah Meets Barakah (2016)

Posted By: Rare-1
SD / DVDRip IMDb
Barakah Meets Barakah (2016)

Barakah Meets Barakah (2016)
DVDRip | MKV | 720 x 428 | AVC @ 1800 Kbps | 84 min | 1.23 Gb
Audio: Arabic AC3 5.1 @ 256 Kbps | Subs: English, French, German (Embedded)
Genre: Comedy | Saudi Arabia

A guy from the middle class, meets a girl from A wealthy family, and they start a romance in a country that frowns upon it.

IMDB 6.4 / 634

Director: Mahmoud Sabbagh
Writer: Mahmoud Sabbagh (screenplay)
Actors: Hisham Fageeh, Fatima AlBanawi, Sami Hifny, Khairia Nazmi
Rated: N/A
Runtime: 84 min

This film was the official submission of Saudi Arabia for the 'Best Foreign Language Film' category of the 89th Academy Awards in 2017.

Barakah Meets Barakah (2016)

Barakah Meets Barakah (2016)

Barakah Meets Barakah (2016)

Barakah Meets Barakah (2016)


Barakah Meets Barakah (2016)


Barakah Meets Barakah (2016)



General
Unique ID : 302027897754140836954150639988275616565 (0xE338750D30756DD8A89D27FDD74B1B35)
Complete name : E:\HDNLUF079\New folder\Sabbagh - 2016 - Barakah Meets Barakah\Barakah Meets Barakah.mkv
Format : Matroska
Format version : Version 4 / Version 2
File size : 1.23 GiB
Duration : 1 h 24 min
Overall bit rate : 2 073 kb/s
Encoded date : UTC 2017-11-27T16:12:42Z
Writing application : HandBrake 20171001141121-dda2863-master 2017100301
Writing library : Lavf57.7.2

Video
ID : 1
Format : AVC
Format/Info : Advanced Video Codec
Format profile : High@L3.1
Format settings, CABAC : Yes
Format settings, RefFrames : 9 frames
Codec ID : V_MPEG4/ISO/AVC
Duration : 1 h 24 min
Bit rate : 1 800 kb/s
Width : 720 pixels
Height : 428 pixels
Display aspect ratio : 2.40:1
Frame rate mode : Constant
Frame rate : 25.000 FPS
Color space : YUV
Chroma subsampling : 4:2:0
Bit depth : 8 bits
Scan type : Progressive
Bits/(Pixel*Frame) : 0.234
Stream size : 1.05 GiB (86%)
Writing library : x264 core 148 r2708 86b7198
Encoding settings : cabac=1 / ref=9 / deblock=1:-3:-3 / analyse=0x3:0x133 / me=umh / subme=10 / psy=1 / psy_rd=1.00:0.00 / mixed_ref=1 / me_range=24 / chroma_me=1 / trellis=2 / 8x8dct=1 / cqm=0 / deadzone=21,11 / fast_pskip=0 / chroma_qp_offset=-2 / threads=3 / lookahead_threads=1 / sliced_threads=0 / nr=0 / decimate=1 / interlaced=0 / bluray_compat=0 / constrained_intra=0 / bframes=16 / b_pyramid=2 / b_adapt=2 / b_bias=0 / direct=3 / weightb=1 / open_gop=0 / weightp=2 / keyint=250 / keyint_min=25 / scenecut=40 / intra_refresh=0 / rc_lookahead=60 / rc=2pass / mbtree=1 / bitrate=1800 / ratetol=1.0 / qcomp=0.60 / qpmin=0 / qpmax=69 / qpstep=4 / cplxblur=20.0 / qblur=0.5 / vbv_maxrate=17500 / vbv_bufsize=17500 / nal_hrd=none / filler=0 / ip_ratio=1.40 / aq=2:1.00
Default : Yes
Forced : No
Color range : Limited
Color primaries : BT.601 PAL
Transfer characteristics : BT.709
Matrix coefficients : BT.601

Audio
ID : 2
Format : AC-3
Format/Info : Audio Coding 3
Format settings, Endianness : Big
Codec ID : A_AC3
Duration : 1 h 24 min
Bit rate mode : Constant
Bit rate : 256 kb/s
Channel(s) : 5 channels
Channel positions : Front: L C R, Side: L R
Sampling rate : 48.0 kHz
Frame rate : 31.250 FPS (1536 SPF)
Bit depth : 16 bits
Compression mode : Lossy
Stream size : 155 MiB (12%)
Title : Surround
Language : Arabic
Service kind : Complete Main
Default : Yes
Forced : No

Text #1
ID : 3
Format : VobSub
Codec ID : S_VOBSUB
Codec ID/Info : Picture based subtitle format used on DVDs
Language : German
Default : No
Forced : No

Text #2
ID : 4
Format : VobSub
Codec ID : S_VOBSUB
Codec ID/Info : Picture based subtitle format used on DVDs
Language : French
Default : No
Forced : No

Menu
00:00:00.000 : :Chapter 1
00:04:26.400 : :Chapter 2
00:13:08.640 : :Chapter 3
00:19:51.360 : :Chapter 4
00:24:42.240 : :Chapter 5
00:30:44.160 : :Chapter 6
00:37:09.120 : :Chapter 7
00:44:04.320 : :Chapter 8
00:44:46.560 : :Chapter 9
00:51:42.720 : :Chapter 10
01:06:45.120 : :Chapter 11
01:17:29.760 : :Chapter 12


Many Thanks to Original uploader.


For More Rare Movies Check out my blog!


Download Links :

No Mirrors Please