Bavaria - A Dream Trip / Bavaria - Traumreise durch Bayern (2012)

Posted By: ParRus
Bavaria - A Dream Trip / Bavaria - Traumreise durch Bayern (2012)

Bavaria A Dream Trip (2012)
BRRip 720p | English | MKV | 1280 x 544 | AVC ~5296 Kbps | 23.976 fps
DTS | 1510 kbps | 48.0 KHz | 6 channels | 1h 33mn | 4.37 GB
Subtitles: English, German, French, Italian, Spanish, Russian, Arabic, Chinese, Japanese
Genre: Documentary

Whoever knows Germany, knows that Bavarians (like me) are a little different from the other Germans. One one side very traditional, on the other hand forward looking, always trying to combine modern times with the good ol'times. Josef Vilsmeier - like every Bavarian - loves his homeland, and so he just wants to depict his homeland in a cinematic way. He spent dozens of hours in a helicopter over Bavaria, only shortly interrupted by short pauses in which he shows images of a few larger cities or certain points of interest or to show images of typical Bavarian tradition, and watching the beautiful images, they are simply great and show the beauty of our homeland. But still - a lot of things are missing, and some of the text spoken by the director himself leave a foul taste…. To the things missing: there are almost no informations to Bavarian history. The traditions shown in the film are mainly catholic Christian traditions, besides, there is a lot more in Bavaria than the Oktoberfest. There is a clear dominance to the city of Munich (more than a fourth of the film), which is the hometown of the director, but Bavaria is definitely not only Munich! And, two of the more peripheral regions of the country of Bavaria are only mentioned very shortly, typical for the pure Bavarian, that considers himself somehow to be in the middle of everything. And this is where the film and some of the director's remarks leave a bad taste: he mentions Bavaria to be the ;Land with the most economic power in Europe;the best of the world; come on, I am a Bavarian, but mainly, I'm German! Germany is a independent country, not Bavaria, it's just a part of Germany. And Germany - like all countries - has other beautiful places as well. A certain patriotism is good, but I personally despise this strong feeling of ;Bavarian supremacy;. In conclusion: beautiful pictures, no equilibrium in documentation, lack of historic details, other people of Bavaria than the dominating Bavarians and Frankonians clearly underrepresented. And someone outside Bavaria will definitely be disgusted by this tone of Bavarian supremacy. At school the teacher would say: insufficient work, Grade E (or Note 5 in Germany), sit down.
Director: Joseph Vilsmaier
IMDB info

General
Complete name : bavaria.a.dream.trip.2012.mkv
Format : Matroska
Format version : Version 4 / Version 2
File size : 4.37 GiB
Duration : 1h 33mn
Overall bit rate : 6 702 Kbps
Encoded date : UTC 2013-02-11 17:59:43
Writing application : mkvmerge v6.0.0 ('Coming Up For Air') built on Jan 20 2013 09:52:00
Writing library : libebml v1.3.0 + libmatroska v1.4.0
Attachment : Yes
Video #1
ID : 1
Format : AVC
Format/Info : Advanced Video Codec
Format profile : High@L4.1
Format settings, CABAC : Yes
Format settings, ReFrames : 5 frames
Codec ID : V_MPEG4/ISO/AVC
Duration : 1h 33mn
Bit rate : 5 296 Kbps
Width : 1 280 pixels
Height : 544 pixels
Display aspect ratio : 2.35:1
Frame rate : 23.976 fps
Color space : YUV
Chroma subsampling : 4:2:0
Bit depth : 8 bits
Scan type : Progressive
Bits/(Pixel*Frame) : 0.317
Stream size : 3.30 GiB (75%)
Writing library : x264 core 129 r2230 1cffe9f
Encoding settings : cabac=1 / ref=5 / deblock=1:-3:-3 / analyse=0x3:0x113 / me=umh / subme=7 / psy=1 / psy_rd=1.00:0.00 / mixed_ref=1 / me_range=16 / chroma_me=1 / trellis=2 / 8x8dct=1 / cqm=0 / deadzone=21,11 / fast_pskip=1 / chroma_qp_offset=-2 / threads=16 / lookahead_threads=2 / sliced_threads=0 / nr=0 / decimate=1 / interlaced=0 / bluray_compat=0 / constrained_intra=0 / bframes=3 / b_pyramid=2 / b_adapt=1 / b_bias=0 / direct=1 / weightb=1 / open_gop=0 / weightp=2 / keyint=240 / keyint_min=23 / scenecut=40 / intra_refresh=0 / rc_lookahead=60 / rc=abr / mbtree=1 / bitrate=5296 / ratetol=1.0 / qcomp=0.60 / qpmin=0 / qpmax=69 / qpstep=4 / ip_ratio=1.40 / aq=1:1.00
Language : English
Audio #2
ID : 2
Format : DTS
Format/Info : Digital Theater Systems
Codec ID : A_DTS
Duration : 1h 33mn
Bit rate mode : Constant
Bit rate : 1 510 Kbps
Channel(s) : 6 channels
Channel positions : Front: L C R, Side: L R, LFE
Sampling rate : 48.0 KHz
Bit depth : 24 bits
Compression mode : Lossy
Stream size : 1 008 MiB (23%)
Language : English
Text #3
ID : 3
Format : VobSub
Codec ID : S_VOBSUB
Codec ID/Info : The same subtitle format used on DVDs
Language : English
Text #4
ID : 4
Format : VobSub
Codec ID : S_VOBSUB
Codec ID/Info : The same subtitle format used on DVDs
Language : German
Text #5
ID : 5
Format : VobSub
Codec ID : S_VOBSUB
Codec ID/Info : The same subtitle format used on DVDs
Language : German
Text #6
ID : 6
Format : VobSub
Codec ID : S_VOBSUB
Codec ID/Info : The same subtitle format used on DVDs
Language : French
Text #7
ID : 7
Format : VobSub
Codec ID : S_VOBSUB
Codec ID/Info : The same subtitle format used on DVDs
Language : Italian
Text #8
ID : 8
Format : VobSub
Codec ID : S_VOBSUB
Codec ID/Info : The same subtitle format used on DVDs
Language : Spanish
Text #9
ID : 9
Format : VobSub
Codec ID : S_VOBSUB
Codec ID/Info : The same subtitle format used on DVDs
Language : Russian
Text #10
ID : 10
Format : VobSub
Codec ID : S_VOBSUB
Codec ID/Info : The same subtitle format used on DVDs
Language : Arabic
Text #11
ID : 11
Format : VobSub
Codec ID : S_VOBSUB
Codec ID/Info : The same subtitle format used on DVDs
Language : Chinese
Text #12
ID : 12
Format : VobSub
Codec ID : S_VOBSUB
Codec ID/Info : The same subtitle format used on DVDs
Language : Japanese

ScreenShots

Bavaria - A Dream Trip / Bavaria - Traumreise durch Bayern (2012)

Bavaria - A Dream Trip / Bavaria - Traumreise durch Bayern (2012)

Bavaria - A Dream Trip / Bavaria - Traumreise durch Bayern (2012)

Bavaria - A Dream Trip / Bavaria - Traumreise durch Bayern (2012)

Bavaria - A Dream Trip / Bavaria - Traumreise durch Bayern (2012)

For more, Visit my AH-blog

no mirrors please, Follow The Rules