Tags
Language
Tags

Betty White: First Lady of Television (2018)

Posted By: Tutorial
1080p (FullHD) / WEB-DL IMDb
Betty White: First Lady of Television (2018)

Betty White: First Lady of Television (2018)
1080p WEB-DL | 1920 x 1080 | .MKV/AVC @ 5249 Kbps | 55 min 51 s | English E-AC-3 128 Kbps, 2 ch | 2.10 GB
1080p WEBRip | 1920 x 1080 | .MP4/AVC @ 2500 Kbps | 55 min 51 s | English AAC 224 Kbps, 2 ch | 1.06 GB
WEBRip | 720 x 400 | .MP4/AVC @ 1100 Kbps | 55 min 51 s | English AAC 256 Kbps, 2 ch | 544 MB
Genre: Documentary / Subs: English

A look at Betty White's life and career features behind-the-scenes clips of her work on television and comments from her friends and co-stars.

General
Unique ID : 256482349152077628457096014812858466227 (0xC0F4B422014F174A304E25E30C9EBFB3)
Complete name : Betty.White.First.Lady.of.Television.2018.1080p.NF.WEB-DL.mkv
Format : Matroska
Format version : Version 4 / Version 2
File size : 2.10 GiB
Duration : 55 min 51 s
Overall bit rate mode : Variable
Overall bit rate : 5 379 kb/s
Encoded date : UTC 2020-07-08 05:17:23
Writing application : mkvmerge v43.0.0 ('The Quartermaster') 64-bit
Writing library : libebml v1.3.10 + libmatroska v1.5.2

Video
ID : 1
Format : AVC
Format/Info : Advanced Video Codec
Format profile : High@L4
Format settings : CABAC / 4 Ref Frames
Format settings, CABAC : Yes
Format settings, RefFrames : 4 frames
Codec ID : V_MPEG4/ISO/AVC
Duration : 55 min 51 s
Bit rate mode : Variable
Bit rate : 5 249 kb/s
Maximum bit rate : 20.0 Mb/s
Width : 1 920 pixels
Height : 1 080 pixels
Display aspect ratio : 16:9
Frame rate mode : Constant
Frame rate : 23.976 (24000/1001) FPS
Color space : YUV
Chroma subsampling : 4:2:0
Bit depth : 8 bits
Scan type : Progressive
Bits/(Pixel*Frame) : 0.106
Stream size : 2.05 GiB (98%)
Writing library : x264 core 148 r2715 7e75228
Encoding settings : cabac=1 / ref=4 / deblock=1:0:0 / analyse=0x3:0x111 / me=umh / subme=10 / psy=1 / psy_rd=1.00:0.00 / mixed_ref=1 / me_range=120 / chroma_me=1 / trellis=2 / 8x8dct=1 / cqm=0 / deadzone=21,11 / fast_pskip=1 / chroma_qp_offset=-2 / threads=8 / lookahead_threads=2 / sliced_threads=0 / nr=0 / decimate=1 / interlaced=0 / bluray_compat=0 / stitchable=1 / constrained_intra=0 / bframes=16 / b_pyramid=2 / b_adapt=2 / b_bias=0 / direct=3 / weightb=1 / open_gop=0 / weightp=2 / keyint=240 / keyint_min=121 / scenecut=0 / intra_refresh=0 / rc_lookahead=240 / rc=crf / mbtree=1 / crf=16.0 / qcomp=0.50 / qpmin=6 / qpmax=51 / qpstep=4 / vbv_maxrate=20000 / vbv_bufsize=25000 / crf_max=0.0 / nal_hrd=vbr / filler=0 / ip_ratio=1.40 / aq=1:0.80
Default : Yes
Forced : No

Audio
ID : 2
Format : E-AC-3
Format/Info : Enhanced Audio Coding 3
Codec ID : A_EAC3
Duration : 55 min 51 s
Bit rate mode : Constant
Bit rate : 128 kb/s
Channel(s) : 2 channels
Channel positions : Front: L R
Sampling rate : 48.0 kHz
Frame rate : 187.500 FPS (256 SPF)
Compression mode : Lossy
Stream size : 51.1 MiB (2%)
Language : English
Service kind : Complete Main
Default : Yes
Forced : No

Text
ID : 3
Format : UTF-8
Codec ID : S_TEXT/UTF8
Codec ID/Info : UTF-8 Plain Text
Duration : 55 min 42 s
Bit rate : 108 b/s
Count of elements : 1152
Stream size : 44.4 KiB (0%)
Title : SDH
Language : English
Default : No
Forced : No

General
Complete name : Betty.White.First.Lady.of.Television.2018.1080p.WEBRip.mp4
Format : MPEG-4
Format profile : Base Media
Codec ID : isom (isom/iso2/avc1/mp41)
File size : 1.06 GiB
Duration : 55 min 51 s
Overall bit rate : 2 728 kb/s
Movie name : Betty.White.First.Lady.of.Television.2018.1080p.WEBRip.x264
Encoded date : UTC 2022-01-01 11:42:03
Tagged date : UTC 2022-01-01 11:42:03
Writing application : Lavf58.20.100
Comment : Betty.White.First.Lady.of.Television.2018.1080p.WEBRip.x264

Video
ID : 1
Format : AVC
Format/Info : Advanced Video Codec
Format profile : High@L4.1
Format settings : CABAC / 4 Ref Frames
Format settings, CABAC : Yes
Format settings, RefFrames : 4 frames
Codec ID : avc1
Codec ID/Info : Advanced Video Coding
Duration : 55 min 51 s
Bit rate : 2 500 kb/s
Width : 1 920 pixels
Height : 1 080 pixels
Display aspect ratio : 16:9
Frame rate mode : Constant
Frame rate : 23.976 (23976/1000) FPS
Color space : YUV
Chroma subsampling : 4:2:0
Bit depth : 8 bits
Scan type : Progressive
Bits/(Pixel*Frame) : 0.050
Stream size : 999 MiB (92%)
Writing library : x264 core 152 r2851M ba24899
Encoding settings : cabac=1 / ref=4 / deblock=1:-1:-1 / analyse=0x3:0x113 / me=umh / subme=9 / psy=1 / psy_rd=1.00:0.15 / mixed_ref=1 / me_range=24 / chroma_me=1 / trellis=2 / 8x8dct=1 / cqm=0 / deadzone=21,11 / fast_pskip=1 / chroma_qp_offset=-3 / threads=16 / lookahead_threads=4 / sliced_threads=0 / nr=0 / decimate=1 / interlaced=0 / bluray_compat=0 / constrained_intra=0 / bframes=3 / b_pyramid=2 / b_adapt=2 / b_bias=0 / direct=3 / weightb=1 / open_gop=0 / weightp=2 / keyint=250 / keyint_min=25 / scenecut=40 / intra_refresh=0 / rc_lookahead=50 / rc=2pass / mbtree=1 / bitrate=2500 / ratetol=1.0 / qcomp=0.60 / qpmin=0 / qpmax=69 / qpstep=4 / cplxblur=20.0 / qblur=0.5 / vbv_maxrate=31250 / vbv_bufsize=31250 / nal_hrd=none / filler=0 / ip_ratio=1.40 / aq=3:1.00
Encoded date : UTC 2022-01-01 11:42:03
Tagged date : UTC 2022-01-01 11:42:03

Audio
ID : 2
Format : AAC
Format/Info : Advanced Audio Codec
Format profile : LC
Codec ID : mp4a-40-2
Duration : 55 min 51 s
Duration_LastFrame : -11 ms
Bit rate mode : Constant
Bit rate : 224 kb/s
Channel(s) : 2 channels
Channel positions : Front: L R
Sampling rate : 48.0 kHz
Frame rate : 46.875 FPS (1024 SPF)
Compression mode : Lossy
Stream size : 89.5 MiB (8%)
Language : English
Default : Yes
Alternate group : 1
Encoded date : UTC 2022-01-01 11:42:03
Tagged date : UTC 2022-01-01 11:42:03

General
Complete name : Betty.White.First.Lady.of.Television.2018.WEBRip.mp4
Format : MPEG-4
Format profile : Base Media
Codec ID : isom (isom/iso2/avc1/mp41)
File size : 544 MiB
Duration : 55 min 51 s
Overall bit rate : 1 361 kb/s
Movie name : RARBG - Betty.White.First.Lady.of.Television.2018.WEBRip.x264-ION10
Encoded date : UTC 2022-01-01 10:31:04
Tagged date : UTC 2022-01-01 10:31:04
Writing application : Lavf58.20.100
Comment : RARBG - Betty.White.First.Lady.of.Television.2018.WEBRip.x264-ION10

Video
ID : 1
Format : AVC
Format/Info : Advanced Video Codec
Format profile : High@L3.1
Format settings : CABAC / 5 Ref Frames
Format settings, CABAC : Yes
Format settings, RefFrames : 5 frames
Codec ID : avc1
Codec ID/Info : Advanced Video Coding
Duration : 55 min 51 s
Bit rate : 1 100 kb/s
Width : 720 pixels
Height : 400 pixels
Display aspect ratio : 16:9
Frame rate mode : Constant
Frame rate : 23.976 (24000/1001) FPS
Color space : YUV
Chroma subsampling : 4:2:0
Bit depth : 8 bits
Scan type : Progressive
Bits/(Pixel*Frame) : 0.159
Stream size : 439 MiB (81%)
Title : RARBG - Betty.White.First.Lady.of.Television.2018.WEBRip.x264-ION10
Writing library : x264 core 152 r2851M ba24899
Encoding settings : cabac=1 / ref=5 / deblock=1:-1:-1 / analyse=0x3:0x113 / me=umh / subme=9 / psy=1 / psy_rd=1.00:0.15 / mixed_ref=1 / me_range=16 / chroma_me=1 / trellis=2 / 8x8dct=1 / cqm=0 / deadzone=21,11 / fast_pskip=1 / chroma_qp_offset=-3 / threads=16 / lookahead_threads=1 / sliced_threads=0 / nr=0 / decimate=1 / interlaced=0 / bluray_compat=0 / constrained_intra=0 / bframes=3 / b_pyramid=2 / b_adapt=2 / b_bias=0 / direct=3 / weightb=1 / open_gop=0 / weightp=2 / keyint=250 / keyint_min=23 / scenecut=40 / intra_refresh=0 / rc_lookahead=50 / rc=2pass / mbtree=1 / bitrate=1100 / ratetol=1.0 / qcomp=0.60 / qpmin=0 / qpmax=69 / qpstep=4 / cplxblur=20.0 / qblur=0.5 / ip_ratio=1.40 / aq=1:1.00
Encoded date : UTC 2022-01-01 10:31:04
Tagged date : UTC 2022-01-01 10:31:04

Audio
ID : 2
Format : AAC
Format/Info : Advanced Audio Codec
Format profile : LC
Codec ID : mp4a-40-2
Duration : 55 min 51 s
Duration_LastFrame : -11 ms
Bit rate mode : Constant
Bit rate : 256 kb/s
Channel(s) : 2 channels
Channel positions : Front: L R
Sampling rate : 48.0 kHz
Frame rate : 46.875 FPS (1024 SPF)
Compression mode : Lossy
Stream size : 102 MiB (19%)
Title : RARBG - Betty.White.First.Lady.of.Television.2018.WEBRip.x264-ION10
Language : English
Default : Yes
Alternate group : 1
Encoded date : UTC 2022-01-01 10:31:04
Tagged date : UTC 2022-01-01 10:31:04
Screenshots 1080p WEB-DL

Betty White: First Lady of Television (2018)

Screenshots 1080p WEBRip

Betty White: First Lady of Television (2018)

Screenshots WEBRip

Betty White: First Lady of Television (2018)

Welcome to my blog - daily update!