A&E Biography - Ernest Hemingway: Wrestling with Life (1998)

Posted By: Polik88
A&E Biography - Ernest Hemingway: Wrestling with Life (1998)

A&E Biography - Ernest Hemingway: Wrestling with Life (1998)
DVDRip | English | AVI/XviD 29.970 fps 1941 Kbps | 656x504 | AC3 192 Kbps 48.0 khz | 1h 31mn | 1.37 GB
Genre: Documentary

Ernest Hemingway's novels rank among the most influential and celebrated in history, while his life remains an obscure image shrouded in myth.
In this feature-length portrait narrated by the author's granddaughter, actress Mariel Hemingway, BIOGRAPHY examines the remarkable life story of this legendary Nobel laureate. It is a fascinating trip through his world–from the hospital in Milan where he first found love to the resort community in the Midwest where he took his own life. Rare footage of Hemingway at rest, excerpts from his letters and unpublished works, and the recollections of those who knew him best shed light on his extraordinary journey.
From the battlefields of Europe to the docks of Key West, join BIOGRAPHY for a compelling voyage through the life and legacy of one of the 20th century's most masterful writers.
General
Complete name : Biography.Ernest.Hemingway.Wrestling.With.Life.avi
Format : AVI
Format/Info : Audio Video Interleave
File size : 1.37 GiB
Duration : 1h 31mn
Overall bit rate : 2 144 Kbps

Video
ID : 0
Format : MPEG-4 Visual
Format profile : Advanced Simple@L5
Format settings, BVOP : 2
Format settings, QPel : Yes
Format settings, GMC : No warppoints
Format settings, Matrix : Custom
Codec ID : XVID
Codec ID/Hint : XviD
Duration : 1h 31mn
Bit rate : 1 941 Kbps
Width : 656 pixels
Height : 504 pixels
Display aspect ratio : 4:3
Frame rate : 29.970 fps
Color space : YUV
Chroma subsampling : 4:2:0
Bit depth : 8 bits
Scan type : Progressive
Compression mode : Lossy
Bits/(Pixel*Frame) : 0.196
Stream size : 1.24 GiB (91%)
Writing library : XviD 1.2.1 (UTC 2008-12-04)

Audio
ID : 1
Format : AC-3
Format/Info : Audio Coding 3
Mode extension : CM (complete main)
Format settings, Endianness : Big
Codec ID : 2000
Duration : 1h 31mn
Source duration : 1h 31mn
Bit rate mode : Constant
Bit rate : 192 Kbps
Channel(s) : 2 channels
Channel positions : Front: L R
Sampling rate : 48.0 KHz
Bit depth : 16 bits
Compression mode : Lossy
Stream size : 126 MiB (9%)
Alignment : Aligned on interleaves
Interleave, duration : 33 ms (1.00 video frame)

Screenshots

A&E Biography - Ernest Hemingway: Wrestling with Life (1998)

A&E Biography - Ernest Hemingway: Wrestling with Life (1998)

A&E Biography - Ernest Hemingway: Wrestling with Life (1998)

A&E Biography - Ernest Hemingway: Wrestling with Life (1998)

no mirrors please.
Visit Polik88 Blog Here
no password

A&E Biography - Ernest Hemingway: Wrestling with Life (1998)