Black Death (2010) [REPOST]

Posted By: FenixN
Black Death (2010) [REPOST]

Black Death (2010)
DVDRip | AVI / XviD, 867 kb/s | 656x272 | 01:37:48 | French: MP3, 128 kb/s (2 ch) | 703 MB
Genre: Adventure, Drama, Mystery | UK / Germany

Alors que la première épidémie de peste bubonique ravage l’Angleterre, un jeune moine nommé Osmund reçoit la mission d’accompagner un groupe de chevaliers, menés par le rustre Ulric, pour enquêter sur d’étranges phénomènes se produisant dans un petit village reculé. Il semblerait en effet que, en ce lieu, les morts reviennent à la vie. Comprenant que cela est le fait d’un nécromancien ayant un lien particulier avec le village, ils se lancent à sa recherche et finissent bientôt par le trouver en la personne de la mystérieuse beauté Langiva. Mais quand Osmund, déchiré entre son amour pour Dieu et celui pour une jeune femme, accepte de passer un pacte avec la nécromancienne, l’horreur de son véritable voyage ne fait que commencer…

Réalisateur(s) : Christopher Smith
Acteur(s) : Sean Bean, Eddie Redmayne, Kimberley Nixon

imdb: 6,6/10 (7 072 votes)

Format : AVI
Format/Info : Audio Video Interleave
File size : 703 MiB
Duration : 1h 37mn
Overall bit rate : 1 004 Kbps

Video
ID : 0
Format : MPEG-4 Visual
Format profile : Advanced Simple@L5
Format settings, BVOP : Yes
Format settings, QPel : No
Format settings, GMC : No warppoints
Format settings, Matrix : Default (H.263)
Muxing mode : Packed bitstream
Codec ID : XVID
Codec ID/Hint : XviD
Duration : 1h 37mn
Bit rate : 867 Kbps
Width : 656 pixels
Height : 272 pixels
Display aspect ratio : 2.40:1
Frame rate : 25.000 fps
Resolution : 8 bits
Colorimetry : 4:2:0
Scan type : Progressive
Bits/(Pixel*Frame) : 0.194
Stream size : 607 MiB (86%)
Writing library : XviD 1.2.1 (UTC 2008-12-04)

Audio
ID : 1
Format : MPEG Audio
Format version : Version 1
Format profile : Layer 3
Mode : Joint stereo
Format_Settings_ModeExtension : MS Stereo
Codec ID : 55
Codec ID/Hint : MP3
Duration : 1h 37mn
Bit rate mode : Constant
Bit rate : 128 Kbps
Channel(s) : 2 channels
Sampling rate : 48.0 KHz
Stream size : 89.4 MiB (13%)
Alignment : Aligned on interleaves
Interleave, duration : 40 ms (1.00 video frame)
Interleave, preload duration : 504 ms
Writing library : LAME3.97
Encoding settings : -m j -V 4 -q 2 -lowpass 17 -b 128


screenshot
Black Death (2010) [REPOST]

Black Death (2010) [REPOST]

Black Death (2010) [REPOST]


Need more movie with french language?
Welcome to my avaxhome blog: here