Bridget Jones's Baby (2016)

Posted By: Without
Bridget Jones's Baby (2016)

Bridget Jones's Baby (2016)
HDRip | AVI | 720x304 | XviD@1429 kb/s | English AC3@192 kb/s | 2 channels | 2 h 2 min | 1.39 GB
WEB-DL 720p | MKV | 1280x532 | AVC@3967 kb/s | English AC3@192 kb/s | 2 channels | 2 h 2 min | 3.64 GB
WEB-DL 1080p | MKV | 1916x798 | AVC@4460 kb/s | English AC3@192 kb/s | 2 channels | 2 h 2 min | 4.06 GB
Genre: Comedy, Romance

Bridget's focus on single life and her career is interrupted when she finds herself pregnant, but with one hitch … she can only be fifty percent sure of the identity of her baby's father.



General
Complete name : J:\Torrents\Bridget.Jones.Baby.2016.HDRip.XviD.AC3-EVO\Bridget.Jones.Baby.2016.HDRip.XviD.AC3-EVO.avi
Format : AVI
Format/Info : Audio Video Interleave
Format profile : OpenDML
Format settings : rec
File size : 1.39 GiB
Duration : 2 h 2 min
Overall bit rate : 1 627 kb/s
Writing application : AVI-Mux GUI 1.17.8.3, Feb 16 201019:42:50

Video
ID : 0
Format : MPEG-4 Visual
Format profile : Advanced Simple@L5
Format settings, BVOP : 2
Format settings, QPel : No
Format settings, GMC : No warppoints
Format settings, Matrix : Default (H.263)
Muxing mode : Packed bitstream
Codec ID : XVID
Codec ID/Hint : XviD
Duration : 2 h 2 min
Bit rate : 1 429 kb/s
Width : 720 pixels
Height : 304 pixels
Display aspect ratio : 2.35:1
Frame rate : 23.976 (24000/1001) FPS
Color space : YUV
Chroma subsampling : 4:2:0
Bit depth : 8 bits
Scan type : Progressive
Compression mode : Lossy
Bits/(Pixel*Frame) : 0.272
Stream size : 1.22 GiB (88%)
Writing library : XviD 66

Audio
ID : 1
Format : AC-3
Format/Info : Audio Coding 3
Mode extension : CM (complete main)
Format settings, Endianness : Big
Codec ID : 2000
Duration : 2 h 2 min
Bit rate mode : Constant
Bit rate : 192 kb/s
Channel(s) : 2 channels
Channel positions : Front: L R
Sampling rate : 48.0 kHz
Frame rate : 31.250 FPS (1536 spf)
Bit depth : 16 bits
Compression mode : Lossy
Stream size : 168 MiB (12%)
Alignment : Aligned on interleaves
Interleave, duration : 64 ms (1.53 video frames)
Interleave, preload duration : 192 ms
Title : en

General
Unique ID : 247905367400051865591262447011654435887 (0xBA80D64894E647A9AEFBEC9CA382842F)
Complete name : J:\Torrents\Bridget.Jones.Baby.2016.720p.WEB-DL.H264.AC3-EVO\Bridget.Jones.Baby.2016.720p.WEB-DL.H264.AC3-EVO.mkv
Format : Matroska
Format version : Version 4 / Version 2
File size : 3.64 GiB
Duration : 2 h 2 min
Overall bit rate : 4 244 kb/s
Movie name : EVO
Encoded date : UTC 2016-11-09 20:03:22
Writing application : mkvmerge v6.7.0 ('Back to the Ground') 64bit built on Jan 8 2014 15:10:52
Writing library : libebml v1.3.0 + libmatroska v1.4.1

Video
ID : 2
Format : AVC
Format/Info : Advanced Video Codec
Format profile : Main@L3.1
Format settings, CABAC : No
Format settings, ReFrames : 2 frames
Codec ID : V_MPEG4/ISO/AVC
Duration : 2 h 2 min
Bit rate : 3 967 kb/s
Width : 1 280 pixels
Height : 532 pixels
Display aspect ratio : 2.40:1
Frame rate mode : Constant
Frame rate : 23.976 FPS
Color space : YUV
Chroma subsampling : 4:2:0
Bit depth : 8 bits
Scan type : Progressive
Bits/(Pixel*Frame) : 0.243
Stream size : 3.40 GiB (93%)
Language : English
Default : Yes
Forced : No
Color range : Limited
Color primaries : BT.709
Transfer characteristics : BT.709
Matrix coefficients : BT.709
Statistics Tags Issue : mkvmerge v8.3.0 ('Over the Horizon') 64bit 2016-11-09 19:14:33 / mkvmerge v6.7.0 ('Back to the Ground') 64bit built on Jan 8 2014 15:10:52 2016-11-09 20:03:22
FromStats_BitRate : 4049967
FromStats_Duration : 02:02:39.193000000
FromStats_FrameCount : 176444
FromStats_StreamSize : 3725562000

Audio
ID : 1
Format : AC-3
Format/Info : Audio Coding 3
Mode extension : CM (complete main)
Format settings, Endianness : Big
Codec ID : A_AC3
Duration : 2 h 2 min
Bit rate mode : Constant
Bit rate : 192 kb/s
Channel(s) : 2 channels
Channel positions : Front: L R
Sampling rate : 48.0 kHz
Frame rate : 31.250 FPS (1536 spf)
Bit depth : 16 bits
Compression mode : Lossy
Stream size : 168 MiB (5%)
Language : English
Default : Yes
Forced : No

Menu
00:00:00.000 : en:глава 1
00:08:50.530 : en:глава 2
00:16:22.565 : en:глава 3
00:24:10.658 : en:глава 4
00:29:55.627 : en:глава 5
00:34:52.298 : en:глава 6
00:41:30.237 : en:глава 7
00:47:43.401 : en:глава 8
00:52:06.455 : en:глава 9
00:57:45.836 : en:глава 10
01:03:39.314 : en:глава 11
01:08:13.880 : en:глава 12
01:13:18.476 : en:глава 13
01:20:49.552 : en:глава 14
01:27:33.998 : en:глава 15
01:37:29.176 : en:глава 16
01:43:19.442 : en:глава 17
01:48:11.567 : en:глава 18
01:51:54.665 : en:глава 19
01:56:08.794 : en:глава 20

General
Unique ID : 247105616360290466436598267618649541813 (0xB9E6CF8350968665A03CBB6DB1C98CB5)
Complete name : J:\Torrents\Bridget.Jones.Baby.2016.1080p.WEB-DL.H264.AC3-EVO\Bridget.Jones.Baby.2016.1080p.WEB-DL.H264.AC3-EVO.mkv
Format : Matroska
Format version : Version 4 / Version 2
File size : 4.07 GiB
Duration : 2 h 2 min
Overall bit rate : 4 746 kb/s
Movie name : EVO
Encoded date : UTC 2016-11-09 20:01:17
Writing application : mkvmerge v6.7.0 ('Back to the Ground') 64bit built on Jan 8 2014 15:10:52
Writing library : libebml v1.3.0 + libmatroska v1.4.1

Video
ID : 1
Format : AVC
Format/Info : Advanced Video Codec
Format profile : High@L4
Format settings, CABAC : Yes
Format settings, ReFrames : 5 frames
Codec ID : V_MPEG4/ISO/AVC
Duration : 2 h 2 min
Bit rate : 4 460 kb/s
Width : 1 916 pixels
Height : 798 pixels
Display aspect ratio : 2.40:1
Frame rate mode : Constant
Frame rate : 23.976 FPS
Color space : YUV
Chroma subsampling : 4:2:0
Bit depth : 8 bits
Scan type : Progressive
Bits/(Pixel*Frame) : 0.122
Stream size : 3.82 GiB (94%)
Language : English
Default : Yes
Forced : No
Color range : Limited
Color primaries : BT.709
Transfer characteristics : BT.709
Matrix coefficients : BT.709

Audio
ID : 2
Format : AC-3
Format/Info : Audio Coding 3
Mode extension : CM (complete main)
Format settings, Endianness : Big
Codec ID : A_AC3
Duration : 2 h 2 min
Bit rate mode : Constant
Bit rate : 192 kb/s
Channel(s) : 2 channels
Channel positions : Front: L R
Sampling rate : 48.0 kHz
Frame rate : 31.250 FPS (1536 spf)
Bit depth : 16 bits
Compression mode : Lossy
Stream size : 168 MiB (4%)
Language : English
Default : Yes
Forced : No

Menu
00:00:00.000 : en:1
00:08:50.530 : en:2
00:16:22.565 : en:3
00:24:10.658 : en:4
00:29:55.627 : en:5
00:34:52.298 : en:6
00:41:30.237 : en:7
00:47:43.401 : en:8
00:52:06.455 : en:9
00:57:45.836 : en:10
01:03:39.314 : en:11
01:08:13.880 : en:12
01:13:18.476 : en:13
01:20:49.552 : en:14
01:27:33.998 : en:15
01:37:29.176 : en:16
01:43:19.442 : en:17
01:48:11.567 : en:18
01:51:54.665 : en:19
01:56:08.794 : en:20


HDRip Screenshots

Bridget Jones's Baby (2016)

Bridget Jones's Baby (2016)

Bridget Jones's Baby (2016)


WEB-DL 720p Screenshots

Bridget Jones's Baby (2016)

Bridget Jones's Baby (2016)

Bridget Jones's Baby (2016)


WEB-DL 1080p Screenshots

Bridget Jones's Baby (2016)

Bridget Jones's Baby (2016)

Bridget Jones's Baby (2016)


Come Visit My Blog (•‿•)