Tags
Language
Tags

CNN - Anthony Bourdain: Parts Unknown Season 8 (2016)

Posted By: notbanned
720p (HD) / HDTV
CNN - Anthony Bourdain: Parts Unknown Season 8 (2016)

CNN - Anthony Bourdain: Parts Unknown Season 8 (2016)
HDTV | 1280x720 | .MKV/AVC @ 2842 Kbps | 9x~42min | 7.88 GiB
Audio: English AC3 448 kbps, 6 channels | Subs: None
Genre: Documentary

Emmy and Peabody Award winning Anthony Bourdain is back for another season filled with all new destinations, including Hanoi, London, Montana, and Rome. Travel with him across the globe to these incredible locations to uncover the little known, the off-the-road, and seemingly sometimes deceptively familiar, areas of the world.
Part 1: Hanoi
Bourdain joins the throngs of locals as he motorbikes through Vietnam's capital and indulges in its singular cuisine with president Barack Obama, who, over a dish of Bun Cha, shares personal stories and reflects on his own international travels.

Part 2: Nashville
Bourdain absorbs the tastes, sights and sounds of music city, from chef Josh Habiger's Catbird Seat and Bolton's famous hot chicken, to a night of cooking, drinking and rocking out with singer Alison Mosshart, and her bandmates.

Part 3: Sichuan with Eric Ripert
Michelin star chef Eric Ripert is introduced to China and Sichuan province by host and good friend Bourdain who tests his endurance with mouth-numbing, sinisterly spicy meals (like green peppercorn fish).

Part 4: London
Visiting London, post Brexit vote, Bourdain finds comfort in classic British cuisine including roast bone marrow at chef Fergus Henderson's famed restaurant St. John, and Scotch eggs at Princess Victoria Pub with Nigella Lawson, plus a meeting with revered artist Ralph Steadman at his studio.

Part 5: Huston
Looking beyond oil, NASA, and football, Bourdain explores Houston's diverse cultures, taking in a Bollywood-style dance in a grocery store, a Quincea?era in suburban Pasadena, and the city's slab car parade, while making time for Viet-Bayou crawfish, East Texas barbecue, and a Congolese-Cajun stew.

Part 6: Japan with Masa
Guided by world-renowned chef Masa Takayama, Bourdain's return trip to Japan begins with a tour of outdoor food markets, followed by a conversation with an ex-geisha at her teahouse, and a special omakase experience at Tokyo's acclaimed Sushi Ko, where Masa trained as an apprentice.

Part 7: Minas Gerais Brazil
Bourdain explores the Brazilian heartland, home to baroque architecture, lush hillsides and mineiro cuisine which includes frango ao molho pardo (broiled chicken served in a sauce made using its own blood), that the host samples during a traditional country meal.

Part 8: Buenos Aries
Bourdain's trip to meat-centric Buenos Aires features a meal at famous local spot, Don Carlito's, and an after-hours soccer match.

Part 9: Rome
Bourdain's Roman holiday takes a cinematic turn, influenced by his tour guides, actress Asia Argento, screenwriter/director Abel Ferrara, and a host of larger than life Romans who take him inside a Rome for the locals.

General
Unique ID : 247142199020985511655336241002156555821 (0xB9EDDB2D687912729D48512FF7B27E2D)
Complete name : CNN.Anthony.Bourdain.Parts.Unknown.Season.8.1of9.Hanoi.HDTV.x264.720p.mkv
Format : Matroska
Format version : Version 4 / Version 2
File size : 1 015 MiB
Duration : 42 min 17 s
Overall bit rate : 3 357 kb/s

Video
ID : 1
Format : AVC
Format/Info : Advanced Video Codec
Format profile : High@L4.1
Format settings, CABAC : Yes
Format settings, ReFrames : 5 frames
Codec ID : V_MPEG4/ISO/AVC
Duration : 42 min 17 s
Bit rate : 2 842 kb/s
Width : 1 280 pixels
Height : 720 pixels
Display aspect ratio : 16:9
Frame rate mode : Constant
Frame rate : 29.970 (30000/1001) FPS
Color space : YUV
Chroma subsampling : 4:2:0
Bit depth : 8 bits
Scan type : Progressive
Bits/(Pixel*Frame) : 0.103
Stream size : 860 MiB (85%)
Encoding settings : cabac=1 / ref=5 / deblock=1:-1:-1 / analyse=0x3:0x133 / me=esa / subme=7 / psy=1 / psy_rd=1.00:0.00 / mixed_ref=1 / me_range=24 / chroma_me=1 / trellis=2 / 8x8dct=1 / cqm=0 / deadzone=21,11 / fast_pskip=0 / chroma_qp_offset=-2 / threads=6 / lookahead_threads=1 / sliced_threads=0 / nr=0 / decimate=1 / interlaced=0 / bluray_compat=0 / constrained_intra=0 / bframes=5 / b_pyramid=0 / b_adapt=2 / b_bias=0 / direct=3 / weightb=1 / open_gop=0 / weightp=2 / keyint=300 / keyint_min=29 / scenecut=40 / intra_refresh=0 / rc_lookahead=60 / rc=crf / mbtree=1 / crf=20.0 / qcomp=0.60 / qpmin=10 / qpmax=51 / qpstep=4 / vbv_maxrate=62500 / vbv_bufsize=78125 / crf_max=0.0 / nal_hrd=none / filler=0 / ip_ratio=1.40 / aq=1:1.05
Language : English
Default : Yes
Forced : No

Audio
ID : 2
Format : AC-3
Format/Info : Audio Coding 3
Format settings, Endianness : Big
Codec ID : A_AC3
Duration : 42 min 17 s
Bit rate mode : Constant
Bit rate : 448 kb/s
Channel(s) : 6 channels
Channel positions : Front: L C R, Side: L R, LFE
Sampling rate : 48.0 kHz
Frame rate : 31.250 FPS (1536 spf)
Bit depth : 16 bits
Compression mode : Lossy
Stream size : 136 MiB (13%)
Service kind : Complete Main
Default : Yes
Forced : No


Screenshots:

CNN - Anthony Bourdain: Parts Unknown Season 8 (2016)

CNN - Anthony Bourdain: Parts Unknown Season 8 (2016)

CNN - Anthony Bourdain: Parts Unknown Season 8 (2016)

CNN - Anthony Bourdain: Parts Unknown Season 8 (2016)