Summer Camp (2016)

Posted By: Tavaz
1080p (FullHD) / BDRip IMDb
Summer Camp (2016)

Summer Camp (2016)
WEB-DL | MKV | 1920x1080 | German / English | H265 @ 3536 kbps | AC-3 @ 384 kbps | 1 h 24 min | 2.53 GiB
Genre: Horror

Drei Amerikaner und ein Einheimischer treffen erste Vorbereitungen, um ein spanisches Ferienlager auf Fordermann zu bringen – bevor die Schüler anreisen. Doch die Ferienzeit steht unter keinem guten Stern. Sorge bereitet ein vermeintlich tollwütiger Hund, der im hauseigenen Streichelzoo andere Tiere verletzt und auch sonst ein aggressives Verhalten an den Tag legt. Aber der mutige Will kennt sich aus. Er ist mit Tieren aufgewachsen und traut sich in den Käfig des erkrankten Tieres. Keine gute Idee; der Hund beißt zu. Doch der verletzte Arm ist nichts im Vergleich zu dem, was folgen wird. Die Freunde verwandeln sich nacheinander in unaufhaltsame Bestien und wollen den Übrigen an den Kragen. Seltsamerweise ist die Verwandlung nur von kurzer Dauer. Kaum wie eine Furie kreischend durchs Camp geflitzt, findet man sich wenig später verstört und orientierungslos auf dem Grundstück wieder. Lange bleibt die Ursache des Zombiewerdens ungeklärt.

Was.die.VAVOO.BOX.alles.kann.erfaehrst.Du.in.diesem.Video(2).mp4 (99.9 MB)
Was.die.VAVOO.BOX.alles.kann.erfaehrst.Du.in.diesem.Video.mp4 (99.9 MB)
Was.die.VAVOO.BOX.alles.kann.erfaehrst.Du.in.diesem.Video(1).mp4 (99.9 MB)
SHHD-Catoeferx265.mkv (2.5 GB)



General
Unique ID : 133760538228888094689780220300973491118 (0x64A157B4524A5466A5C26437B8F6C3AE)
Complete name : ./Camp.Toedliche.Ferien.2015.German.DL.1080p.BluRay.x265-SHOWEHD/SHHD-Catoeferx265.mkv
Format : Matroska
Format version : Version 4 / Version 2
File size : 2.53 GiB
Duration : 1 h 24 min
Overall bit rate : 4 306 kb/s
Encoded date : UTC 2018-03-05 15:54:30
Writing application : mkvmerge v19.0.0 ('Brave Captain') 64-bit
Writing library : libebml v1.3.5 + libmatroska v1.4.8

Video
ID : 1
Format : HEVC
Format/Info : High Efficiency Video Coding
Format profile : Main@L4@Main
Codec ID : V_MPEGH/ISO/HEVC
Duration : 1 h 24 min
Bit rate : 3 536 kb/s
Width : 1 920 pixels
Height : 1 080 pixels
Display aspect ratio : 16:9
Frame rate mode : Constant
Frame rate : 24.000 FPS
Color space : YUV
Chroma subsampling : 4:2:0
Bit depth : 8 bits
Bits/(Pixel*Frame) : 0.071
Stream size : 2.08 GiB (82%)
Writing library : x265 2.5+2-18fa144d453e:[Windows][GCC 7.1.0][64 bit] 8bit+10bit+12bit
Encoding settings : cpuid=1050111 / frame-threads=5 / numa-pools=16,16 / wpp / no-pmode / no-pme / no-psnr / no-ssim / log-level=2 / input-csp=1 / input-res=1920x1080 / interlace=0 / total-frames=121065 / level-idc=0 / high-tier=1 / uhd-bd=0 / ref=4 / no-allow-non-conformance / no-repeat-headers / annexb / no-aud / no-hrd / info / hash=0 / no-temporal-layers / open-gop / min-keyint=24 / keyint=250 / bframes=4 / b-adapt=2 / b-pyramid / bframe-bias=0 / rc-lookahead=25 / lookahead-slices=4 / scenecut=40 / no-intra-refresh / ctu=64 / min-cu-size=8 / rect / no-amp / max-tu-size=32 / tu-inter-depth=1 / tu-intra-depth=1 / limit-tu=0 / rdoq-level=2 / dynamic-rd=0.00 / no-ssim-rd / signhide / no-tskip / nr-intra=0 / nr-inter=0 / no-constrained-intra / strong-intra-smoothing / max-merge=3 / limit-refs=3 / limit-modes / me=3 / subme=3 / merange=57 / temporal-mvp / weightp / no-weightb / no-analyze-src-pics / deblock=0:0 / sao / no-sao-non-deblock / rd=4 / no-early-skip / rskip / no-fast-intra / no-tskip-fast / no-cu-lossless / no-b-intra / rdpenalty=0 / psy-rd=2.00 / psy-rdoq=1.00 / no-rd-refine / analysis-reuse-mode=0 / no-lossless / cbqpoffs=0 / crqpoffs=0 / rc=crf / crf=20.0 / qcomp=0.60 / qpstep=4 / stats-write=0 / stats-read=0 / ipratio=1.40 / pbratio=1.30 / aq-mode=1 / aq-strength=1.00 / cutree / zone-count=0 / no-strict-cbr / qg-size=32 / no-rc-grain / qpmax=69 / qpmin=0 / no-const-vbv / sar=1 / overscan=0 / videoformat=5 / range=0 / colorprim=2 / transfer=2 / colormatrix=2 / chromaloc=0 / display-window=0 / max-cll=0,0 / min-luma=0 / max-luma=255 / log2-max-poc-lsb=8 / vui-timing-info / vui-hrd-info / slices=1 / opt-qp-pps / opt-ref-list-length-pps / no-multi-pass-opt-rps / scenecut-bias=0.05 / no-opt-cu-delta-qp / no-aq-motion / no-hdr / no-hdr-opt / no-dhdr10-opt / analysis-reuse-level=5 / scale-factor=0 / refine-intra=0 / refine-inter=0 / refine-mv=0 / no-limit-sao / ctu-info=0
Language : German
Default : Yes
Forced : No

Audio #1
ID : 2
Format : AC-3
Format/Info : Audio Coding 3
Format settings, Endianness : Big
Codec ID : A_AC3
Duration : 1 h 24 min
Bit rate mode : Constant
Bit rate : 384 kb/s
Channel(s) : 6 channels
Channel positions : Front: L C R, Side: L R, LFE
Sampling rate : 48.0 kHz
Frame rate : 31.250 FPS (1536 SPF)
Bit depth : 16 bits
Compression mode : Lossy
Stream size : 231 MiB (9%)
Language : German
Service kind : Complete Main
Default : Yes
Forced : No

Audio #2
ID : 3
Format : AC-3
Format/Info : Audio Coding 3
Format settings, Endianness : Big
Codec ID : A_AC3
Duration : 1 h 24 min
Bit rate mode : Constant
Bit rate : 384 kb/s
Channel(s) : 6 channels
Channel positions : Front: L C R, Side: L R, LFE
Sampling rate : 48.0 kHz
Frame rate : 31.250 FPS (1536 SPF)
Bit depth : 16 bits
Compression mode : Lossy
Stream size : 231 MiB (9%)
Language : English
Service kind : Complete Main
Default : No
Forced : No

Menu
00:00:00.000 : en:00:00:00.000
00:13:32.625 : en:00:13:32.625
00:27:55.792 : en:00:27:55.792
00:42:10.500 : en:00:42:10.500
00:55:29.542 : en:00:55:29.542
01:09:28.875 : en:01:09:28.875
01:19:29.000 : en:01:19:29.000





Summer Camp (2016)


Summer Camp (2016)


Summer Camp (2016)


Summer Camp (2016)


Summer Camp (2016)