BSkyB - Can a Computer Write a Hit Musical ? (2016)

Posted By: notbanned
1080p (FullHD) / HDTV
BSkyB - Can a Computer Write a Hit Musical ? (2016)

BSkyB - Can a Computer Write a Hit Musical ? (2016)
HDTV | 1920x1080 | .MP4/AVC @ 4313 Kbps | 1 h 4 min | 2.02 GiB
Audio: English AAC 158 kbps, 2 channels | Subs: English
Genre: Documentary

The computer revolution. In a world becoming ever more technologically advanced, and reliant upon computers, a team of scientists and musical theatre writers team up to devise a recipe for success in musical theatre and then task computers to use that knowledge and generate a hit.

General
Complete name : Can.a.Computer.Write.a.Hit.Musical.1080p.mp4
Format : MPEG-4
Format profile : Base Media
Codec ID : isom (isom)
File size : 2.02 GiB
Duration : 1 h 4 min
Overall bit rate mode : Variable
Overall bit rate : 4 474 kb/s

Video
ID : 1
Format : AVC
Format/Info : Advanced Video Codec
Format profile : High@L4.1
Format settings, CABAC : No
Format settings, ReFrames : 1 frame
Format settings, GOP : M=1, N=12
Codec ID : avc1
Codec ID/Info : Advanced Video Coding
Duration : 1 h 4 min
Bit rate : 4 313 kb/s
Maximum bit rate : 24.8 Mb/s
Width : 1 920 pixels
Height : 1 080 pixels
Display aspect ratio : 16:9
Frame rate mode : Constant
Frame rate : 29.970 (30000/1001) FPS
Color space : YUV
Chroma subsampling : 4:2:0
Bit depth : 8 bits
Scan type : Progressive
Bits/(Pixel*Frame) : 0.069
Stream size : 1.94 GiB (96%)
Encoded date : UTC 2018-12-05 19:25:19
Tagged date : UTC 2018-12-05 22:32:04

Audio
ID : 2
Format : AAC
Format/Info : Advanced Audio Codec
Format profile : LC
Codec ID : 40
Duration : 1 h 4 min
Bit rate mode : Variable
Bit rate : 158 kb/s
Maximum bit rate : 235 kb/s
Channel(s) : 2 channels
Channel positions : Front: L R
Sampling rate : 48.0 kHz
Frame rate : 46.875 FPS (1024 spf)
Compression mode : Lossy
Stream size : 73.1 MiB (4%)
Language : English
Encoded date : UTC 2018-12-05 22:31:54
Tagged date : UTC 2018-12-05 22:32:04

Text
ID : 3
Format : Timed Text
Codec ID : tx3g
Duration : 1 h 4 min
Bit rate mode : Variable
Bit rate : 103 b/s
Stream size : 48.5 KiB (0%)
Forced : No
Encoded date : UTC 2018-12-05 22:32:04
Tagged date : UTC 2018-12-05 22:32:04


Screenshots:

BSkyB - Can a Computer Write a Hit Musical ? (2016)

BSkyB - Can a Computer Write a Hit Musical ? (2016)

BSkyB - Can a Computer Write a Hit Musical ? (2016)

BSkyB - Can a Computer Write a Hit Musical ? (2016)