Channel 4 - My Daughter the Teenage Nudist (2013)

Posted By: Polik88
Channel 4 - My Daughter the Teenage Nudist (2013)

Channel 4 - My Daughter the Teenage Nudist (2013)
English | MP4 | 832x468 | AVC 1805 Kbps 25.000 fps | AAC 128 Kbps 48.0 khz | 47mn 9s | 653 MB
Genre: Documentary

Mollie and Alex are part of a growing group of teens and twentysomethings embracing the world of public nudity - a contemporary phenomenon that's been driven by social networking sites such as Facebook as well as niche websites like Naked Vegan Cooking. They are on a quest to normalise nudity, question the media's obsession with the body beautiful, and encourage other young people to liberate themselves by simply going naked - in the streets, in cafes or at art shows. The new nudists are keen to take the nudist lifestyle beyond the old fashioned naturist clubs. So why is this pastime increasing in popularity and what do the parents think about their child revealing all in the most public of places?
General
Complete name : Ch4.My.Daughter.the.Teenage.Nudist.mp4
Format : MPEG-4
Format profile : Base Media
Codec ID : isom
File size : 653 MiB
Duration : 47mn 9s
Overall bit rate mode : Variable
Overall bit rate : 1 938 Kbps
Encoded date : UTC 2013-02-12 14:24:48
Tagged date : UTC 2013-02-12 14:24:48
Writing application : Lavf51.12.1

Video
ID : 1
Format : AVC
Format/Info : Advanced Video Codec
Format profile : High@L3.0
Format settings, CABAC : No
Format settings, ReFrames : 1 frame
Format settings, GOP : M=1, N=12
Codec ID : avc1
Codec ID/Info : Advanced Video Coding
Duration : 47mn 9s
Bit rate : 1 805 Kbps
Width : 832 pixels
Height : 468 pixels
Display aspect ratio : 16:9
Frame rate mode : Constant
Frame rate : 25.000 fps
Color space : YUV
Chroma subsampling : 4:2:0
Bit depth : 8 bits
Scan type : Progressive
Bits/(Pixel*Frame) : 0.185
Stream size : 609 MiB (93%)
Encoded date : UTC 2013-02-12 14:24:48
Tagged date : UTC 2013-02-12 14:24:48

Audio
ID : 2
Format : AAC
Format/Info : Advanced Audio Codec
Format profile : LC
Codec ID : 40
Duration : 47mn 9s
Bit rate mode : Variable
Bit rate : 128 Kbps
Channel(s) : 2 channels
Channel positions : Front: L R
Sampling rate : 48.0 KHz
Compression mode : Lossy
Stream size : 43.2 MiB (7%)
Encoded date : UTC 2013-02-12 14:24:48
Tagged date : UTC 2013-02-12 14:24:48

Screenshots

Channel 4 - My Daughter the Teenage Nudist (2013)

Channel 4 - My Daughter the Teenage Nudist (2013)

Channel 4 - My Daughter the Teenage Nudist (2013)

no mirrors please, Follow The Rules
Visit Polik88 Blog Here
no password