Tags
Language
Tags

Ch.5 - Churchill Series 1 (2021)

Posted By: notbanned
1080p (FullHD) / HDTV
Ch.5 - Churchill Series 1 (2021)

Ch.5 - Churchill Series 1 (2021)
HDTV | 1920x1080 | .MP4/AVC @ 4501 Kbps | 5x~44min | 7.35 GiB
Audio: English AAC 161 kbps, 2 channels | Subs: English
Genre: Documentary

Series exploring the life of one of Britain's most iconic Prime Minister Winston Churchill.

Part 1: Beginnings
The series begins with his early years, when he is driven by the desire to prove himself to his father. He is born into aristocracy in the grand family home of Bleinhem Palace. From a young age he is acutely aware he has a lot to live up to. His father, Randolph Churchill, is an ambitious, controversial, highly successful politician and a strict disciplinarian who fails to give young Winston the affection he craves. Churchill never gets the chance to reconcile with his father and channels his sense of loss at his untimely death into a fierce determination to succeed at all costs.


Part 2: The Long Grass
A look at the little known drama of Winston Churchill's First World War. Aged 40, he became Britain's First Lord of the Admiralty, in charge of the largest naval force in the world. This edition also examines his ability to bounce back from the disaster of Gallipoli, and his experiences on the Western Front.


Part 3: A Gathering Storm
The story of Winston Churchill's return from the political wilderness to become the heroic war leader many still celebrate today. Though Churchill stood against India's move towards independence, his warnings about Nazi Germany were thought by some to be misplaced, and eventually he was proved right. In this episode, those closest to him reveal the true story behind the most important speech of his life.


Part 4: Path to Victory
In 1941, Winston Churchill arrived in the USA to be greeted like a movie star by an adoring public. Securing the support of US president Franklin Roosevelt and Soviet leader Joseph Stalin required all Churchill's skills as a communicator and negotiator. The supreme effort that he put in to keeping his allies on side almost killed him, but it gave him the chance to lead his country to victory. This episode also explores the Allies' extraordinary victory on D-Day.


Part 5: Fallen Hero
It is 1945, and Winston Churchill has led Britain to the brink of victory, but he is determined to carry on as prime minister and calls a general election. He fully expects voters to give him another five years in Number 10, but he is in for a shock. Once the election is called the tide begins to turn, and Churchill struggles on the campaign trail.

General
Complete name : Churchill.Series.1.Part.5.Fallen.Hero.1080p.mp4
Format : MPEG-4
Format profile : Base Media
Codec ID : isom (isom)
File size : 1.47 GiB
Duration : 44 min 58 s
Overall bit rate mode : Variable
Overall bit rate : 4 666 kb/s

Video
ID : 1
Format : AVC
Format/Info : Advanced Video Codec
Format profile : High@L4.2
Format settings, CABAC : Yes
Format settings, ReFrames : 4 frames
Codec ID : avc1
Codec ID/Info : Advanced Video Coding
Duration : 44 min 58 s
Bit rate : 4 501 kb/s
Maximum bit rate : 31.8 Mb/s
Width : 1 920 pixels
Height : 1 080 pixels
Display aspect ratio : 16:9
Frame rate mode : Constant
Frame rate : 25.000 FPS
Standard : Component
Color space : YUV
Chroma subsampling : 4:2:0
Bit depth : 8 bits
Scan type : Progressive
Bits/(Pixel*Frame) : 0.087
Stream size : 1.41 GiB (96%)
Language : English
Tagged date : UTC 2021-04-25 11:46:44
Color range : Limited

Audio
ID : 2
Format : AAC
Format/Info : Advanced Audio Codec
Format profile : LC
Codec ID : 40
Duration : 44 min 58 s
Bit rate mode : Variable
Bit rate : 161 kb/s
Maximum bit rate : 198 kb/s
Channel(s) : 2 channels
Channel positions : Front: L R
Sampling rate : 48.0 kHz
Frame rate : 46.875 FPS (1024 spf)
Compression mode : Lossy
Stream size : 51.7 MiB (3%)
Language : English
Encoded date : UTC 2021-04-25 11:45:57
Tagged date : UTC 2021-04-25 11:46:44

Text
ID : 3
Format : Timed Text
Codec ID : tx3g
Duration : 44 min 36 s
Bit rate mode : Variable
Bit rate : 95 b/s
Stream size : 31.2 KiB (0%)
Forced : No
Encoded date : UTC 2021-04-25 11:46:44
Tagged date : UTC 2021-04-25 11:46:44


Screenshots:

Ch.5 - Churchill Series 1 (2021)

Ch.5 - Churchill Series 1 (2021)

Ch.5 - Churchill Series 1 (2021)

Ch.5 - Churchill Series 1 (2021)