Tags
Language
Tags

Claire in Motion (2016)

Posted By: JohnSmith
Claire in Motion (2016)

Claire in Motion (2016)
HDRip | MKV / AVC@1940 kb/s | 720x34 | 1h 24mn | 1.37 GB | English: AC3, 384 kb/s (6 ch)
WEB-DL 720p | MKV / AVC@3900 kb/s | 1280x542 | 1h 24mn | 2.46 GB | English: AC3, 384 kb/s (6 ch)
WEB-DL 1080p | MKV / AVC@4589 kb/s | 1920x812 | 1h 24mn | 2.92 GB | English: AC3, 384 kb/s (6 ch)
Genre: Drama

Claire is sure of herself, her work and family, until - like a bad dream - her husband disappears, leaving a trail of puzzling secrets that shatter her certainty.

IMDB - 2 nominations.



General
Unique ID : 214034571775494308420997023528127275864 (0xA1058F20A16A59A7941E578C094BA358)
Complete name : A:\Claire.in.Motion.2016.HDRip.mkv
Format : Matroska
Format version : Version 4 / Version 2
File size : 1.37 GiB
Duration : 1 h 24 min
Overall bit rate : 2 327 kb/s
Movie name : Claire In Motion
Encoded date : UTC 2017-01-13 07:09:01
Writing application : mkvmerge v8.3.0 ('Over the Horizon') 64bit
Writing library : libebml v1.3.1 + libmatroska v1.4.2

Video
ID : 1
Format : AVC
Format/Info : Advanced Video Codec
Format profile : Baseline@L3.1
Format settings, CABAC : No
Format settings, ReFrames : 1 frame
Codec ID : V_MPEG4/ISO/AVC
Duration : 1 h 24 min
Bit rate : 1 939 kb/s
Width : 720 pixels
Height : 304 pixels
Display aspect ratio : 2.35:1
Frame rate mode : Constant
Frame rate : 23.976 (24000/1001) FPS
Color space : YUV
Chroma subsampling : 4:2:0
Bit depth : 8 bits
Scan type : Progressive
Bits/(Pixel*Frame) : 0.369
Stream size : 1.14 GiB (83%)
Writing library : x264 core 142 r2479 dd79a61
Encoding settings : cabac=0 / ref=1 / deblock=1:0:0 / analyse=0x1:0x111 / me=hex / subme=2 / psy=1 / psy_rd=1.00:0.00 / mixed_ref=0 / me_range=16 / chroma_me=1 / trellis=0 / 8x8dct=0 / cqm=0 / deadzone=21,11 / fast_pskip=1 / chroma_qp_offset=0 / threads=9 / lookahead_threads=2 / sliced_threads=0 / nr=0 / decimate=1 / interlaced=0 / bluray_compat=0 / constrained_intra=0 / bframes=0 / weightp=0 / keyint=240 / keyint_min=24 / scenecut=40 / intra_refresh=0 / rc_lookahead=10 / rc=2pass / mbtree=1 / bitrate=1939 / ratetol=1.0 / qcomp=0.60 / qpmin=0 / qpmax=69 / qpstep=4 / cplxblur=20.0 / qblur=0.5 / vbv_maxrate=14000 / vbv_bufsize=14000 / nal_hrd=none / filler=0 / ip_ratio=1.40 / aq=1:1.00
Default : Yes
Forced : No
Color range : Limited
Color primaries : BT.709
Transfer characteristics : BT.709
Matrix coefficients : BT.709

Audio
ID : 2
Format : AC-3
Format/Info : Audio Coding 3
Mode extension : CM (complete main)
Format settings, Endianness : Big
Codec ID : A_AC3
Duration : 1 h 24 min
Bit rate mode : Constant
Bit rate : 384 kb/s
Channel(s) : 6 channels
Channel positions : Front: L C R, Side: L R, LFE
Sampling rate : 48.0 kHz
Frame rate : 31.250 FPS (1536 spf)
Compression mode : Lossy
Stream size : 231 MiB (17%)
Title : Surround
Language : English
Default : Yes
Forced : No





General
Unique ID : 219867518950128894217096187456711010024 (0xA568F1A0717209FABB6197A4BB9FA6E8)
Complete name : A:\Claire.in.Motion.2016.720p.WEB-DL.mkv
Format : Matroska
Format version : Version 4 / Version 2
File size : 2.46 GiB
Duration : 1 h 24 min
Overall bit rate : 4 190 kb/s
Movie name : Claire In Motion
Encoded date : UTC 2017-01-13 07:07:19
Writing application : mkvmerge v8.3.0 ('Over the Horizon') 64bit
Writing library : libebml v1.3.1 + libmatroska v1.4.2

Video
ID : 1
Format : AVC
Format/Info : Advanced Video Codec
Format profile : High@L3.1
Format settings, CABAC : Yes
Format settings, ReFrames : 4 frames
Codec ID : V_MPEG4/ISO/AVC
Duration : 1 h 24 min
Bit rate : 3 900 kb/s
Width : 1 280 pixels
Height : 542 pixels
Display aspect ratio : 2.35:1
Frame rate mode : Constant
Frame rate : 23.976 (24000/1001) FPS
Color space : YUV
Chroma subsampling : 4:2:0
Bit depth : 8 bits
Scan type : Progressive
Bits/(Pixel*Frame) : 0.234
Stream size : 2.23 GiB (91%)
Writing library : x264 core 142 r2479 dd79a61
Encoding settings : cabac=1 / ref=1 / deblock=1:0:0 / analyse=0x3:0x113 / me=hex / subme=2 / psy=1 / psy_rd=1.00:0.00 / mixed_ref=0 / me_range=16 / chroma_me=1 / trellis=0 / 8x8dct=1 / cqm=0 / deadzone=21,11 / fast_pskip=1 / chroma_qp_offset=0 / threads=9 / lookahead_threads=3 / sliced_threads=0 / nr=0 / decimate=1 / interlaced=0 / bluray_compat=0 / constrained_intra=0 / bframes=3 / b_pyramid=2 / b_adapt=1 / b_bias=0 / direct=1 / weightb=1 / open_gop=0 / weightp=1 / keyint=240 / keyint_min=24 / scenecut=40 / intra_refresh=0 / rc_lookahead=10 / rc=abr / mbtree=1 / bitrate=3900 / ratetol=1.0 / qcomp=0.60 / qpmin=0 / qpmax=69 / qpstep=4 / vbv_maxrate=17500 / vbv_bufsize=17500 / nal_hrd=none / filler=0 / ip_ratio=1.40 / aq=1:1.00
Default : Yes
Forced : No
Color range : Limited
Color primaries : BT.709
Transfer characteristics : BT.709
Matrix coefficients : BT.709

Audio
ID : 2
Format : AC-3
Format/Info : Audio Coding 3
Mode extension : CM (complete main)
Format settings, Endianness : Big
Codec ID : A_AC3
Duration : 1 h 24 min
Bit rate mode : Constant
Bit rate : 384 kb/s
Channel(s) : 6 channels
Channel positions : Front: L C R, Side: L R, LFE
Sampling rate : 48.0 kHz
Frame rate : 31.250 FPS (1536 spf)
Compression mode : Lossy
Stream size : 231 MiB (9%)
Title : Surround
Language : English
Default : Yes
Forced : No





General
Unique ID : 186387671407953672963128595411881684169 (0x8C38F5B305CB8FB8BE8ED63C871FECC9)
Complete name : A:\Claire.in.Motion.2016.1080p.WEB-DL.mkv
Format : Matroska
Format version : Version 4 / Version 2
File size : 2.92 GiB
Duration : 1 h 24 min
Overall bit rate : 4 975 kb/s
Encoded date : UTC 2017-01-13 07:06:42
Writing application : mkvmerge v8.3.0 ('Over the Horizon') 64bit
Writing library : libebml v1.3.1 + libmatroska v1.4.2

Video
ID : 1
Format : AVC
Format/Info : Advanced Video Codec
Format profile : High@L4
Format settings, CABAC : Yes
Format settings, ReFrames : 5 frames
Codec ID : V_MPEG4/ISO/AVC
Duration : 1 h 24 min
Bit rate : 4 589 kb/s
Width : 1 920 pixels
Height : 812 pixels
Display aspect ratio : 2.35:1
Frame rate mode : Constant
Frame rate : 23.976 (23976/1000) FPS
Color space : YUV
Chroma subsampling : 4:2:0
Bit depth : 8 bits
Scan type : Progressive
Bits/(Pixel*Frame) : 0.123
Stream size : 2.69 GiB (92%)
Language : English
Default : Yes
Forced : No
Color range : Limited
Color primaries : BT.709
Transfer characteristics : BT.709
Matrix coefficients : BT.709

Audio
ID : 2
Format : AC-3
Format/Info : Audio Coding 3
Mode extension : CM (complete main)
Format settings, Endianness : Big
Codec ID : A_AC3
Duration : 1 h 24 min
Bit rate mode : Constant
Bit rate : 384 kb/s
Channel(s) : 6 channels
Channel positions : Front: L C R, Side: L R, LFE
Sampling rate : 48.0 kHz
Frame rate : 31.250 FPS (1536 spf)
Compression mode : Lossy
Stream size : 231 MiB (8%)
Language : English
Default : Yes
Forced : No




Screenshots HDRip

Claire in Motion (2016)

Claire in Motion (2016)

Claire in Motion (2016)


Screenshots WEB-DL 720p

Claire in Motion (2016)

Claire in Motion (2016)

Claire in Motion (2016)


Screenshots WEB-DL 1080p

Claire in Motion (2016)

Claire in Motion (2016)

Claire in Motion (2016)