Tags
Language
Tags

Nat.Geo. - Cosmos Possible Worlds: Series 1 (2020)

Posted By: Tutorial
1080p (FullHD) / HDTV
Nat.Geo. - Cosmos Possible Worlds: Series 1 (2020)

Nat.Geo. - Cosmos Possible Worlds: Series 1 (2020)
HDTV | 1920 x 1080 | .MP4/AVC @ 4523 Kbps | 6x~44mn | 8.64 GB
Audio: English AAC 160 Kbps, 2 channels | Subs: None
Genre: Documentary

Following the wildly successful "Cosmos: A Spacetime Odyssey," Neil deGrasse Tyson returns as host to translate more revelations of science into a lavish transporting experience, taking audiences on a series of spiritual voyages of exploration. The show reveals previously uncharted realms, including lost worlds, worlds yet to come, and the worlds that humans may one day inhabit. Ann Druyan, original creative collaborator to Carl Sagan, whose iconic docuseries "Cosmos" provided inspiration for this series, serves as executive producer alongside Seth MacFarlane. “Over the next couple of months there will be a total of 13 episodes “

Part 1: Ladder to the Stars
Viewers are invited on an adventure spanning billions of years into the evolution of life and consciousness. Visit a 100,000-year-old laboratory, and examine the story of the change in lifestyle that radically altered human existence and the life of the heretic who found God in the book of nature, which opened our way to the stars


Part 2: The Fleeting Grace of the Habitable Zone
There is no refuge from change in the cosmos. There will come a time in the life of the sun when Earth will no longer be a home for us. Explore the story of our ancestors who rose to a comparable challenge, as well as a long-term vision of our future on other worlds.Lost City of Life


Part 3: Lost City of Life
Discover a new vision of genesis at the bottom of the blood-red sea of the infant Earth and the story of the man who found the first clues to life's beginnings in a green jewel. As he searched for the origins of life, he risked his own, daring to toy with his Nazi tormentors.


Part 4: Vavilov
In the first half of the 20th century, pioneering geneticist Nikolai Vavilov traveled five continents to assemble a treasury of the world's seeds. He dreamed that science could be the means to end hunger, and his refusal to tell a scientific lie cost him his life. Witness the heroism of his colleagues and its direct impact on our lives in one of the most stirring stories in the history of science.


Part 5: The Cosmic Connectome
Embark on a voyage of discovery through the evolution of consciousness with stops in ancient Greece and a visit to the largest life form on Earth. This journey takes us into the poignant dream of an abandoned orphan who opened the way to our understanding of the architecture of thought and introduced a vision of a galactic network of thought.


Part 6: The Man of a Trillion Worlds
A child lies on the rug of a tenement, dreaming of interstellar adventures. At the dawn of the space age, a young Carl Sagan's career is forged in the clash of his mentors: two scientific titans. Sagan goes on to realize his childhood dreams, carrying their research forward and communicating its significance to the whole world.

General
Complete name : Cosmos.Possible.Worlds.Series.1.Part.1.Ladder.to.the.Stars.mp4
Format : MPEG-4
Format profile : Base Media
Codec ID : isom (isom)
File size : 1.44 GiB
Duration : 43 min 55 s
Overall bit rate mode : Variable
Overall bit rate : 4 686 kb/s
Encoded date : UTC 2020-03-24 23:00:36
Tagged date : UTC 2020-03-24 23:00:36

Video
ID : 1
Format : AVC
Format/Info : Advanced Video Codec
Format profile : High@L4.1
Format settings, CABAC : No
Format settings, ReFrames : 2 frames
Format settings, GOP : M=1, N=12
Codec ID : avc1
Codec ID/Info : Advanced Video Coding
Duration : 43 min 55 s
Bit rate : 4 523 kb/s
Maximum bit rate : 21.7 Mb/s
Width : 1 920 pixels
Height : 1 080 pixels
Display aspect ratio : 16:9
Frame rate mode : Constant
Frame rate : 24.000 FPS
Color space : YUV
Chroma subsampling : 4:2:0
Bit depth : 8 bits
Scan type : Progressive
Bits/(Pixel*Frame) : 0.091
Stream size : 1.39 GiB (97%)
Title : Cosmos.Possible.Worlds.Series.1.Part.1.Ladder.to.the.Stars.1080p.HDTV.x264.AAC..org.mp4
Language : English
Encoded date : UTC 2020-03-21 16:49:22
Tagged date : UTC 2020-03-24 23:01:13

Audio
ID : 2
Format : AAC
Format/Info : Advanced Audio Codec
Format profile : LC
Codec ID : 40
Duration : 43 min 55 s
Bit rate mode : Variable
Bit rate : 160 kb/s
Maximum bit rate : 227 kb/s
Channel(s) : 2 channels
Channel positions : Front: L R
Sampling rate : 48.0 kHz
Frame rate : 46.875 FPS (1024 spf)
Compression mode : Lossy
Stream size : 50.3 MiB (3%)
Title : Cosmos.Possible.Worlds.Series.1.Part.1.Ladder.to.the.Stars.1080p.HDTV.x264.AAC..org.mp4
Language : English
Encoded date : UTC 2020-03-24 23:01:07
Tagged date : UTC 2020-03-24 23:01:13

Text
ID : 3
Format : Timed Text
Codec ID : tx3g
Duration : 43 min 15 s
Bit rate mode : Variable
Bit rate : 82 b/s
Stream size : 25.9 KiB (0%)
Title : Cosmos.Possible.Worlds.Series.1.Part.1.Ladder.to.the.Stars.1080p.HDTV.x264.AAC..org.srt
Forced : No
Encoded date : UTC 2020-03-24 23:01:13
Tagged date : UTC 2020-03-24 23:01:13
Screenshots

Nat.Geo. - Cosmos Possible Worlds: Series 1 (2020)

Nat.Geo. - Cosmos Possible Worlds: Series 1 (2020)

Nat.Geo. - Cosmos Possible Worlds: Series 1 (2020)

Welcome to my blog - daily update!

Nat.Geo. - Cosmos Possible Worlds: Series 1 (2020)