Tags
Language
Tags

Dark Relic (2010)

Posted By: Tavaz
1080p (FullHD) / BDRip IMDb
Dark Relic (2010)

Dark Relic (2010)
BDRip | MKV | 1920x1080 | H265 @ 3908 kbps | AC-3 @ 448 kbps | 1 h 26 min | 2.70 GiB
Genre: Fantasy, Horror, Science Fiction

1099 A.D.: A battle-weary knight leads his men home from the Holy Land after years of fighting. But the supposedly holy relic he’s carrying bears a terrible curse…

933f1f6597ec4359a17241ae2a1f456e.mkv (2.7 GB)



General
Unique ID : 285313629392500583315131744264376192797 (0xD6A567FF4578275EB7B12B5DC9C28F1D)
Complete name : ./933f1f6597ec4359a17241ae2a1f456e.mkv
Format : Matroska
Format version : Version 4 / Version 2
File size : 2.70 GiB
Duration : 1 h 26 min
Overall bit rate : 4 445 kb/s
Writing application : Lavf57.82.100
Writing library : Lavf57.82.100
ErrorDetectionType : Per level 1

Video
ID : 1
Format : HEVC
Format/Info : High Efficiency Video Coding
Format profile : Main 10@L4@Main
Codec ID : V_MPEGH/ISO/HEVC
Duration : 1 h 26 min
Bit rate : 3 909 kb/s
Width : 1 920 pixels
Height : 1 080 pixels
Display aspect ratio : 16:9
Frame rate mode : Constant
Frame rate : 23.976 (24000/1001) FPS
Color space : YUV
Chroma subsampling : 4:2:0
Bit depth : 10 bits
Bits/(Pixel*Frame) : 0.079
Stream size : 2.37 GiB (88%)
Default : Yes
Forced : No
Color range : Limited
Color primaries : BT.709
Transfer characteristics : BT.709
Matrix coefficients : BT.709

Audio
ID : 2
Format : AC-3
Format/Info : Audio Coding 3
Format settings, Endianness : Big
Codec ID : A_AC3
Duration : 1 h 26 min
Bit rate mode : Constant
Bit rate : 448 kb/s
Channel(s) : 6 channels
Channel positions : Front: L C R, Side: L R, LFE
Sampling rate : 48.0 kHz
Frame rate : 31.250 FPS (1536 SPF)
Bit depth : 16 bits
Compression mode : Lossy
Stream size : 279 MiB (10%)
Service kind : Complete Main
Default : Yes
Forced : No

Menu





Dark Relic (2010)


Dark Relic (2010)


Dark Relic (2010)


Dark Relic (2010)


Dark Relic (2010)