Tags
Language
Tags

Dating Daisy (2016)

Posted By: Tavaz
720p (HD) / WEBRip IMDb
Dating Daisy (2016)

Dating Daisy (2016)
WEBRip | MKV | 1280x690 | English | H264 @ 1972 kbps | AAC @ 110 kbps | 1 h 29 min | 1.31 GiB
Genre: Comedy, Drama, Romance, Family

Dating Daisy is a romantic comedy about the honest and crazy truth of dating in your twenties! The story follows Michael and Daisy, two exes who decide to road trip home together for the holidays and get caught up in their crazy past.

7ba6a3e1c3674b708c6c0babc69209d4.mkv (1.3 GB)



General
Unique ID : 246353444273920364036595837509958116720 (0xB955F290DE299D669340D90A0A782570)
Complete name : ./7ba6a3e1c3674b708c6c0babc69209d4.mkv
Format : Matroska
Format version : Version 4 / Version 2
File size : 1.31 GiB
Duration : 1 h 29 min
Overall bit rate : 2 085 kb/s
Encoded date : UTC 2018-05-19 10:39:14
Writing application : mkvmerge v8.3.0 ('Over the Horizon') 64bit
Writing library : libebml v1.3.1 + libmatroska v1.4.2

Video
ID : 1
Format : AVC
Format/Info : Advanced Video Codec
Format profile : High@L4.1
Format settings : CABAC / 5 Ref Frames
Format settings, CABAC : Yes
Format settings, RefFrames : 5 frames
Codec ID : V_MPEG4/ISO/AVC
Duration : 1 h 29 min
Bit rate : 1 973 kb/s
Width : 1 280 pixels
Height : 690 pixels
Display aspect ratio : 1.85:1
Frame rate mode : Constant
Frame rate : 23.976 (24000/1001) FPS
Color space : YUV
Chroma subsampling : 4:2:0
Bit depth : 8 bits
Scan type : Progressive
Bits/(Pixel*Frame) : 0.093
Stream size : 1.24 GiB (95%)
Writing library : x264 core 155 r2901 7d0ff22
Encoding settings : cabac=1 / ref=5 / deblock=1:-3:-3 / analyse=0x3:0x133 / me=umh / subme=10 / psy=1 / psy_rd=1.05:0.15 / mixed_ref=1 / me_range=16 / chroma_me=1 / trellis=2 / 8x8dct=1 / cqm=0 / deadzone=21,11 / fast_pskip=0 / chroma_qp_offset=-3 / threads=12 / lookahead_threads=1 / sliced_threads=0 / nr=0 / decimate=1 / interlaced=0 / bluray_compat=0 / constrained_intra=0 / bframes=3 / b_pyramid=2 / b_adapt=2 / b_bias=0 / direct=3 / weightb=1 / open_gop=0 / weightp=2 / keyint=250 / keyint_min=24 / scenecut=40 / intra_refresh=0 / rc_lookahead=50 / rc=crf / mbtree=1 / crf=18.0 / qcomp=0.60 / qpmin=0 / qpmax=69 / qpstep=4 / ip_ratio=1.40 / aq=3:0.65
Language : English
Default : Yes
Forced : No

Audio
ID : 2
Format : AAC
Format/Info : Advanced Audio Codec
Format profile : LC
Codec ID : A_AAC-2
Duration : 1 h 29 min
Bit rate : 110 kb/s
Channel(s) : 2 channels
Channel positions : Front: L R
Sampling rate : 48.0 kHz
Frame rate : 46.875 FPS (1024 SPF)
Compression mode : Lossy
Delay relative to video : 9 ms
Stream size : 70.8 MiB (5%)
Language : English
Default : Yes
Forced : No

Menu
00:00:00.054 : en:00:00:00.054





Dating Daisy (2016)


Dating Daisy (2016)


Dating Daisy (2016)


Dating Daisy (2016)


Dating Daisy (2016)