Tags
Language
Tags

Don't Knock Twice (2016)

Posted By: Without
Don't Knock Twice (2016)

Don't Knock Twice (2016)
BDRip | MKV | 720x300 | AVC@321 kb/s | English AAC@117 kb/s | 2 channels | 1 h 32 min | 292 MB
BRRip | AVI | 720x304 | XviD@1351 kb/s | English AC3@448 kb/s | 6 channels | 1 h 32 min | 1.17 GB
BDRip 720p | MKV | 1280x536 | AVC@5217 kb/s | English DTS@1509 kb/s | 6 channels | 1 h 32 min | 4.37 GB
BDRip 1080p | MKV | 1920x800 | AVC@10.3 Mb/s | English DTS@1509 kb/s | 6 channels | 1 h 32 min | 7.65 GB
Genre: Horror

A mother desperate to reconnect with her troubled daughter becomes embroiled in the urban legend of a demonic witch.



General
Unique ID : 218252216440592119546219412082413479683 (0xA431D91071F0F785990B1196EF572703)
Complete name : G:\HDNLUF221\Torrents\Dont.Knock.Twice.2016.BDRip.x264-JustWatch\Dont.Knock.Twice.2016.BDRip.x264-JustWatch.mkv
Format : Matroska
Format version : Version 4 / Version 2
File size : 292 MiB
Duration : 1 h 32 min
Overall bit rate : 440 kb/s
Encoded date : UTC 2017-02-23 17:41:17
Writing application : mkvmerge v9.8.0 ('Kuglblids') 64bit
Writing library : libebml v1.3.4 + libmatroska v1.4.5

Video
ID : 1
Format : AVC
Format/Info : Advanced Video Codec
Format profile : High@L3.1
Format settings, CABAC : Yes
Format settings, ReFrames : 5 frames
Codec ID : V_MPEG4/ISO/AVC
Duration : 1 h 32 min
Bit rate : 321 kb/s
Width : 720 pixels
Height : 300 pixels
Display aspect ratio : 2.40:1
Frame rate mode : Constant
Frame rate : 23.976 (24000/1001) FPS
Color space : YUV
Chroma subsampling : 4:2:0
Bit depth : 8 bits
Scan type : Progressive
Bits/(Pixel*Frame) : 0.062
Stream size : 213 MiB (73%)
Writing library : x264 core 148 r2744 b97ae06
Encoding settings : cabac=1 / ref=5 / deblock=1:-2:-2 / analyse=0x3:0x113 / me=umh / subme=8 / psy=1 / psy_rd=1.00:0.00 / mixed_ref=1 / me_range=16 / chroma_me=1 / trellis=2 / 8x8dct=1 / cqm=0 / deadzone=21,11 / fast_pskip=1 / chroma_qp_offset=-2 / threads=9 / lookahead_threads=1 / sliced_threads=0 / nr=0 / decimate=1 / interlaced=0 / bluray_compat=0 / constrained_intra=0 / bframes=3 / b_pyramid=2 / b_adapt=2 / b_bias=0 / direct=3 / weightb=1 / open_gop=0 / weightp=2 / keyint=240 / keyint_min=24 / scenecut=40 / intra_refresh=0 / rc_lookahead=50 / rc=crf / mbtree=1 / crf=19.0 / qcomp=0.60 / qpmin=0 / qpmax=69 / qpstep=4 / ip_ratio=1.40 / aq=1:0.70
Language : English
Default : Yes
Forced : No
Color range : Limited
Matrix coefficients : BT.709

Audio
ID : 2
Format : AAC
Format/Info : Advanced Audio Codec
Format profile : LC
Codec ID : A_AAC
Duration : 1 h 32 min
Bit rate : 117 kb/s
Channel(s) : 2 channels
Channel positions : Front: L R
Sampling rate : 48.0 kHz
Frame rate : 46.875 FPS (1024 spf)
Compression mode : Lossy
Delay relative to video : 9 ms
Stream size : 77.5 MiB (26%)
Language : English
Default : Yes
Forced : No

Menu #1
00:00:00.000 : en:00:00:00.000
00:08:01.815 : en:00:08:01.815
00:16:01.335 : en:00:16:01.335
00:21:55.564 : en:00:21:55.564
00:29:50.122 : en:00:29:50.122
00:35:46.227 : en:00:35:46.227
00:43:44.080 : en:00:43:44.080
00:52:34.693 : en:00:52:34.693
01:00:25.580 : en:01:00:25.580
01:08:18.720 : en:01:08:18.720
01:16:18.324 : en:01:16:18.324
01:26:59.381 : en:01:26:59.381

Menu #2
00:00:00.054 : en:00:00:00.054

General
Complete name : G:\HDNLUF221\Torrents\Dont.Knock.Twice.2016.BRRip.XviD.AC3-EVO\Dont.Knock.Twice.2016.BRRip.XviD.AC3-EVO.avi
Format : AVI
Format/Info : Audio Video Interleave
File size : 1.17 GiB
Duration : 1 h 32 min
Overall bit rate : 1 808 kb/s
Writing library : VirtualDub build 32593/release

Video
ID : 0
Format : MPEG-4 Visual
Format profile : Advanced Simple@L5
Format settings, BVOP : 2
Format settings, QPel : No
Format settings, GMC : No warppoints
Format settings, Matrix : Default (H.263)
Muxing mode : Packed bitstream
Codec ID : XVID
Codec ID/Hint : XviD
Duration : 1 h 32 min
Bit rate : 1 351 kb/s
Width : 720 pixels
Height : 304 pixels
Display aspect ratio : 2.35:1
Frame rate : 23.976 (24000/1001) FPS
Color space : YUV
Chroma subsampling : 4:2:0
Bit depth : 8 bits
Scan type : Progressive
Compression mode : Lossy
Bits/(Pixel*Frame) : 0.257
Stream size : 898 MiB (75%)
Writing library : XviD 66

Audio
ID : 1
Format : AC-3
Format/Info : Audio Coding 3
Mode extension : CM (complete main)
Format settings, Endianness : Big
Codec ID : 2000
Duration : 1 h 32 min
Bit rate mode : Constant
Bit rate : 448 kb/s
Channel(s) : 6 channels
Channel positions : Front: L C R, Side: L R, LFE
Sampling rate : 48.0 kHz
Frame rate : 31.250 FPS (1536 spf)
Bit depth : 16 bits
Compression mode : Lossy
Stream size : 298 MiB (25%)
Alignment : Aligned on interleaves
Interleave, duration : 42 ms (1.00 video frame)
Interleave, preload duration : 512 ms

General
Complete name : G:\HDNLUF221\Torrents\Dont.Knock.Twice.2016.720p.BluRay.x264-JustWatch\dont.knock.twice.2016.720p.bluray.x264-justwatch.mkv
Format : Matroska
Format version : Version 2
File size : 4.37 GiB
Duration : 1 h 32 min
Overall bit rate : 6 727 kb/s
Writing application : mkvmerge v4.1.1 ('Bouncin' Back') built on Jul 3 2010 22:54:08
Writing library : libebml v1.0.0 + libmatroska v1.0

Video
ID : 1
Format : AVC
Format/Info : Advanced Video Codec
Format profile : High@L4.1
Format settings, CABAC : Yes
Format settings, ReFrames : 5 frames
Codec ID : V_MPEG4/ISO/AVC
Duration : 1 h 32 min
Bit rate : 5 217 kb/s
Width : 1 280 pixels
Height : 536 pixels
Display aspect ratio : 2.40:1
Frame rate mode : Constant
Frame rate : 23.976 (24000/1001) FPS
Color space : YUV
Chroma subsampling : 4:2:0
Bit depth : 8 bits
Scan type : Progressive
Bits/(Pixel*Frame) : 0.317
Stream size : 3.30 GiB (76%)
Writing library : x264 core 148 r2744 b97ae06
Encoding settings : cabac=1 / ref=5 / deblock=1:-2:-2 / analyse=0x3:0x113 / me=umh / subme=8 / psy=1 / psy_rd=1.00:0.00 / mixed_ref=1 / me_range=16 / chroma_me=1 / trellis=2 / 8x8dct=1 / cqm=0 / deadzone=21,11 / fast_pskip=1 / chroma_qp_offset=-2 / threads=12 / lookahead_threads=2 / sliced_threads=0 / nr=0 / decimate=1 / interlaced=0 / bluray_compat=0 / constrained_intra=0 / bframes=3 / b_pyramid=2 / b_adapt=2 / b_bias=0 / direct=3 / weightb=1 / open_gop=0 / weightp=2 / keyint=240 / keyint_min=24 / scenecut=40 / intra_refresh=0 / rc_lookahead=50 / rc=2pass / mbtree=1 / bitrate=5217 / ratetol=1.0 / qcomp=0.60 / qpmin=0 / qpmax=69 / qpstep=4 / cplxblur=20.0 / qblur=0.5 / ip_ratio=1.40 / aq=1:1.00
Language : English
Default : Yes
Forced : No

Audio
ID : 2
Format : DTS
Format/Info : Digital Theater Systems
Mode : 16
Format settings, Endianness : Big
Codec ID : A_DTS
Duration : 1 h 32 min
Bit rate mode : Constant
Bit rate : 1 509 kb/s
Channel(s) : 6 channels
Channel positions : Front: L C R, Side: L R, LFE
Sampling rate : 48.0 kHz
Frame rate : 93.750 FPS (512 spf)
Bit depth : 24 bits
Compression mode : Lossy
Stream size : 1 004 MiB (22%)
Language : English
Default : Yes
Forced : No

Menu
00:00:00.000 : en:00:00:00.000
00:08:01.815 : en:00:08:01.815
00:16:01.335 : en:00:16:01.335
00:21:55.564 : en:00:21:55.564
00:29:50.122 : en:00:29:50.122
00:35:46.227 : en:00:35:46.227
00:43:44.080 : en:00:43:44.080
00:52:34.693 : en:00:52:34.693
01:00:25.580 : en:01:00:25.580
01:08:18.720 : en:01:08:18.720
01:16:18.324 : en:01:16:18.324
01:26:59.381 : en:01:26:59.381

General
Complete name : Dont.Knock.Twice.2016.1080p.BluRay.x264-JustWatch\dont.knock.twice.2016.1080p.bluray.x264-justwatch.mkv
Format : Matroska
Format version : Version 2
File size : 7.65 GiB
Duration : 1 h 32 min
Overall bit rate : 11.8 Mb/s
Writing application : mkvmerge v4.1.1 ('Bouncin' Back') built on Jul 3 2010 22:54:08
Writing library : libebml v1.0.0 + libmatroska v1.0

Video
ID : 1
Format : AVC
Format/Info : Advanced Video Codec
Format profile : High@L4.1
Format settings, CABAC : Yes
Format settings, ReFrames : 5 frames
Codec ID : V_MPEG4/ISO/AVC
Duration : 1 h 32 min
Bit rate : 10.3 Mb/s
Width : 1 920 pixels
Height : 800 pixels
Display aspect ratio : 2.40:1
Frame rate mode : Constant
Frame rate : 23.976 (24000/1001) FPS
Color space : YUV
Chroma subsampling : 4:2:0
Bit depth : 8 bits
Scan type : Progressive
Bits/(Pixel*Frame) : 0.279
Stream size : 6.52 GiB (85%)
Writing library : x264 core 148 r2744 b97ae06
Encoding settings : cabac=1 / ref=5 / deblock=1:-2:-2 / analyse=0x3:0x113 / me=umh / subme=8 / psy=1 / psy_rd=1.00:0.00 / mixed_ref=1 / me_range=16 / chroma_me=1 / trellis=2 / 8x8dct=1 / cqm=0 / deadzone=21,11 / fast_pskip=1 / chroma_qp_offset=-2 / threads=12 / lookahead_threads=2 / sliced_threads=0 / nr=0 / decimate=1 / interlaced=0 / bluray_compat=0 / constrained_intra=0 / bframes=3 / b_pyramid=2 / b_adapt=2 / b_bias=0 / direct=3 / weightb=1 / open_gop=0 / weightp=2 / keyint=240 / keyint_min=24 / scenecut=40 / intra_refresh=0 / rc_lookahead=50 / rc=2pass / mbtree=1 / bitrate=10270 / ratetol=1.0 / qcomp=0.60 / qpmin=0 / qpmax=69 / qpstep=4 / cplxblur=20.0 / qblur=0.5 / ip_ratio=1.40 / aq=1:1.00
Language : English
Default : Yes
Forced : No

Audio
ID : 2
Format : DTS
Format/Info : Digital Theater Systems
Mode : 16
Format settings, Endianness : Big
Codec ID : A_DTS
Duration : 1 h 32 min
Bit rate mode : Constant
Bit rate : 1 509 kb/s
Channel(s) : 6 channels
Channel positions : Front: L C R, Side: L R, LFE
Sampling rate : 48.0 kHz
Frame rate : 93.750 FPS (512 spf)
Bit depth : 24 bits
Compression mode : Lossy
Stream size : 1 004 MiB (13%)
Language : English
Default : Yes
Forced : No

Menu
00:00:00.000 : en:00:00:00.000
00:08:01.815 : en:00:08:01.815
00:16:01.335 : en:00:16:01.335
00:21:55.564 : en:00:21:55.564
00:29:50.122 : en:00:29:50.122
00:35:46.227 : en:00:35:46.227
00:43:44.080 : en:00:43:44.080
00:52:34.693 : en:00:52:34.693
01:00:25.580 : en:01:00:25.580
01:08:18.720 : en:01:08:18.720
01:16:18.324 : en:01:16:18.324
01:26:59.381 : en:01:26:59.381


BDRip Screenshots

Don't Knock Twice (2016)

Don't Knock Twice (2016)

Don't Knock Twice (2016)


BRRip Screenshots

Don't Knock Twice (2016)

Don't Knock Twice (2016)

Don't Knock Twice (2016)


BDRip 720p Screenshots

Don't Knock Twice (2016)

Don't Knock Twice (2016)

Don't Knock Twice (2016)


BDRip 1080p Screenshots

Don't Knock Twice (2016)

Don't Knock Twice (2016)

Don't Knock Twice (2016)


Come Visit My Blog (•‿•)