Tags
Language
Tags

Egon Schiele: Tod und Mädchen (2016)

Posted By: Tavaz
1080p (FullHD) / BDRip IMDb
Egon Schiele: Tod und Mädchen (2016)

Egon Schiele: Tod und Mädchen (2016)
BDRip | MKV | 1920x808 | German | H264 @ 3027 kbps | DTS @ 1509 kbps | 1 h 49 min | 3.46 GiB
Genre: Drama, History

Wien, Anfang des 20. Jahrhunderts: Egon Schiele ist einer der meist diskutiertesten, radikalsten und originellsten Künstler seiner Zeit. Sein kreatives Schaffen wird inspiriert von schönen Frauen und dem pulsierende Zeitgeist einer zu Ende gehenden Ära. Im Zentrum stehen dabei seine Schwester und erste Muse Gerti sowie die 17 jährige Wally, mit der ihn eine wahre, tiefe Liebe verbindet, die durch das Bild “Tod und Mädchen” unsterblich geworden ist.

24.03.2017.2 (1.3 KB)
UnRAR.exe (299.6 KB)
24.03.2017.1 (3.5 GB)
win_click2rename.bat (46 bytes)
a_Linux_2rename.sh (43 bytes)
24.03.2017.8 (2.3 MB)
24.03.2017.4 (42 bytes)
24.03.2017.5 (17.6 KB)
24.03.2017.6 (6.3 MB)
24.03.2017.7 (48.5 KB)
24.03.2017.10 (26.5 MB)



General
Unique ID : 184412287838026156379352731023016996968 (0x8ABC83C515A3BB4E819DB04324BC3068)
Complete name : ./24.03.2017.1
Format : Matroska
Format version : Version 4 / Version 2
File size : 3.46 GiB
Duration : 1 h 49 min
Overall bit rate : 4 539 kb/s
Encoded date : UTC 2017-03-23 00:44:11
Writing application : mkvmerge v9.0.1 ('Obstacles') 64bit
Writing library : libebml v1.3.3 + libmatroska v1.4.4
FileExtension_Invalid : mkv mk3d mka mks

Video
ID : 1
Format : AVC
Format/Info : Advanced Video Codec
Format profile : High@L4.1
Format settings : CABAC / 5 Ref Frames
Format settings, CABAC : Yes
Format settings, RefFrames : 5 frames
Codec ID : V_MPEG4/ISO/AVC
Duration : 1 h 49 min
Bit rate : 3 027 kb/s
Width : 1 920 pixels
Height : 808 pixels
Display aspect ratio : 2.40:1
Frame rate mode : Constant
Frame rate : 24.000 FPS
Color space : YUV
Chroma subsampling : 4:2:0
Bit depth : 8 bits
Scan type : Progressive
Bits/(Pixel*Frame) : 0.081
Stream size : 2.31 GiB (67%)
Writing library : x264 core 148 r2744 b97ae06
Encoding settings : cabac=1 / ref=5 / deblock=1:-1:-1 / analyse=0x3:0x113 / me=umh / subme=7 / psy=1 / psy_rd=1.00:0.00 / mixed_ref=1 / me_range=16 / chroma_me=1 / trellis=1 / 8x8dct=1 / cqm=0 / deadzone=21,11 / fast_pskip=0 / chroma_qp_offset=-2 / threads=12 / lookahead_threads=2 / sliced_threads=0 / nr=0 / decimate=1 / interlaced=0 / bluray_compat=0 / constrained_intra=0 / bframes=3 / b_pyramid=2 / b_adapt=1 / b_bias=0 / direct=3 / weightb=1 / open_gop=0 / weightp=2 / keyint=250 / keyint_min=24 / scenecut=40 / intra_refresh=0 / rc_lookahead=40 / rc=crf / mbtree=1 / crf=20.0 / qcomp=0.60 / qpmin=0 / qpmax=69 / qpstep=4 / ip_ratio=1.40 / aq=1:1.00
Default : Yes
Forced : No

Audio
ID : 2
Format : DTS
Format/Info : Digital Theater Systems
Mode : 16
Format settings, Endianness : Big
Codec ID : A_DTS
Duration : 1 h 49 min
Bit rate mode : Constant
Bit rate : 1 509 kb/s
Channel(s) : 6 channels
Channel positions : Front: L C R, Side: L R, LFE
Sampling rate : 48.0 kHz
Frame rate : 93.750 FPS (512 SPF)
Bit depth : 24 bits
Compression mode : Lossy
Stream size : 1.15 GiB (33%)
Language : German
Default : Yes
Forced : No





Egon Schiele: Tod und Mädchen (2016)


Egon Schiele: Tod und Mädchen (2016)


Egon Schiele: Tod und Mädchen (2016)


Egon Schiele: Tod und Mädchen (2016)


Egon Schiele: Tod und Mädchen (2016)