Tags
Language
Tags

Egon Schiele Death and the Maiden / Egon Schiele: Tod und Mädchen (2016)

Posted By: Without
1080p (FullHD) / BDRip IMDb
Egon Schiele Death and the Maiden / Egon Schiele: Tod und Mädchen (2016)

Egon Schiele Death and the Maiden / Egon Schiele: Tod und Mädchen (2016)
BDRip | MKV | 720x302 | AVC@535 kb/s | German AAC@132 kb/s
Subs: English | 2 channels | 1 h 49 min | 522 MB
BDRip 720p | MKV | 1280x536 | AVC@5665 kb/s | German DTS@1509 kb/s
Subs: English | 6 channels | 1 h 49 min | 5.46 GB
BDRip 1080p | MKV | 1920x808 | AVC@8538 kb/s | German DTS@1509 kb/s
Subs: English | 6 channels | 1 h 49 min | 7.65 GB
Genre: Biography | Drama | History

Egon Schiele is one of the most provocative artists in Vienna at the beginning of the 20th Century. His life and work are driven by beautiful women and an era that is coming to an end. Two women will have a lasting impact on him - his sister and first muse Gerti, and 17 year old Wally, arguably his one true love, immortalized in his famous painting 'Death and the Maiden'. His radical paintings scandalize Viennese society while daring artists like Gustav Klimt and art agents alike are sensing the exceptional. But he is also prepared to go beyond his own pain and to sacrifice Love and Life for his art that inspires us up to this day.

IMDB - 6 wins & 6 nominations.


General
egon.schiele.death.and.the.maiden.2016.bdrip.x264-bipolar.mkv
Format : Matroska
Format version : Version 4 / Version 2
File size : 523 MiB
Duration : 1 h 49 min
Overall bit rate : 671 kb/s
Encoded date : UTC 2018-10-18 06:11:57
Writing application : mkvmerge v8.5.1 ('Where you lead I will follow') 64bit
Writing library : libebml v1.3.3 + libmatroska v1.4.4

Video
ID : 1
Format : AVC
Format/Info : Advanced Video Codec
Format profile : High@L3.1
Format settings, CABAC : Yes
Format settings, ReFrames : 5 frames
Codec ID : V_MPEG4/ISO/AVC
Duration : 1 h 49 min
Bit rate : 535 kb/s
Width : 720 pixels
Height : 302 pixels
Display aspect ratio : 2.40:1
Frame rate mode : Constant
Frame rate : 24.000 FPS
Color space : YUV
Chroma subsampling : 4:2:0
Bit depth : 8 bits
Scan type : Progressive
Bits/(Pixel*Frame) : 0.102
Stream size : 417 MiB (80%)
Writing library : x264 core 155 r2901 7d0ff22
Encoding settings : cabac=1 / ref=5 / deblock=1:-3:-3 / analyse=0x3:0x113 / me=umh / subme=8 / psy=1 / psy_rd=1.00:0.15 / mixed_ref=1 / me_range=16 / chroma_me=1 / trellis=2 / 8x8dct=1 / cqm=0 / deadzone=21,11 / fast_pskip=1 / chroma_qp_offset=-3 / threads=9 / lookahead_threads=1 / sliced_threads=0 / nr=0 / decimate=1 / interlaced=0 / bluray_compat=0 / constrained_intra=0 / bframes=3 / b_pyramid=2 / b_adapt=1 / b_bias=0 / direct=3 / weightb=1 / open_gop=0 / weightp=2 / keyint=240 / keyint_min=24 / scenecut=40 / intra_refresh=0 / rc_lookahead=50 / rc=crf / mbtree=1 / crf=19.0 / qcomp=0.60 / qpmin=0 / qpmax=69 / qpstep=4 / ip_ratio=1.40 / aq=1:1.00
Language : English
Default : Yes
Forced : No
Color range : Limited
Matrix coefficients : BT.709

Audio
ID : 2
Format : AAC
Format/Info : Advanced Audio Codec
Format profile : LC
Codec ID : A_AAC
Duration : 1 h 49 min
Bit rate : 132 kb/s
Channel(s) : 2 channels
Channel positions : Front: L R
Sampling rate : 48.0 kHz
Frame rate : 46.875 FPS (1024 spf)
Compression mode : Lossy
Delay relative to video : 9 ms
Stream size : 104 MiB (20%)
Language : German
Default : Yes
Forced : No

Text
ID : 3
Format : UTF-8
Codec ID : S_TEXT/UTF8
Codec ID/Info : UTF-8 Plain Text
Duration : 1 h 42 min
Bit rate : 45 b/s
Count of elements : 929
Stream size : 34.1 KiB (0%)
Title : English
Language : English
Default : Yes
Forced : Yes

Menu
00:00:00.000 : en:00:00:00.000
00:10:05.708 : en:00:10:05.708
00:18:15.833 : en:00:18:15.833
00:27:23.750 : en:00:27:23.750
00:36:15.458 : en:00:36:15.458
00:44:57.792 : en:00:44:57.792
00:53:23.125 : en:00:53:23.125
01:00:46.792 : en:01:00:46.792
01:11:01.125 : en:01:11:01.125
01:17:42.167 : en:01:17:42.167
01:26:57.792 : en:01:26:57.792
01:35:56.458 : en:01:35:56.458
01:44:21.833 : en:01:44:21.833


General
egon.schiele.death.and.the.maiden.2016.720p.bluray.x264-bipolar.mkv
Format : Matroska
Format version : Version 4 / Version 2
File size : 5.46 GiB
Duration : 1 h 49 min
Overall bit rate : 7 175 kb/s
Encoded date : UTC 2018-10-18 06:25:02
Writing application : mkvmerge v8.5.1 ('Where you lead I will follow') 64bit
Writing library : libebml v1.3.3 + libmatroska v1.4.4

Video
ID : 1
Format : AVC
Format/Info : Advanced Video Codec
Format profile : High@L4.1
Format settings, CABAC : Yes
Format settings, ReFrames : 5 frames
Codec ID : V_MPEG4/ISO/AVC
Duration : 1 h 49 min
Bit rate : 5 665 kb/s
Width : 1 280 pixels
Height : 536 pixels
Display aspect ratio : 2.40:1
Frame rate mode : Constant
Frame rate : 24.000 FPS
Color space : YUV
Chroma subsampling : 4:2:0
Bit depth : 8 bits
Scan type : Progressive
Bits/(Pixel*Frame) : 0.344
Stream size : 4.31 GiB (79%)
Writing library : x264 core 155 r2901 7d0ff22
Encoding settings : cabac=1 / ref=5 / deblock=1:-3:-3 / analyse=0x3:0x133 / me=umh / subme=9 / psy=1 / psy_rd=1.00:0.00 / mixed_ref=1 / me_range=16 / chroma_me=1 / trellis=2 / 8x8dct=1 / cqm=0 / deadzone=21,11 / fast_pskip=0 / chroma_qp_offset=-2 / threads=17 / lookahead_threads=1 / sliced_threads=0 / nr=0 / decimate=1 / interlaced=0 / bluray_compat=0 / constrained_intra=0 / bframes=3 / b_pyramid=2 / b_adapt=1 / b_bias=0 / direct=3 / weightb=1 / open_gop=0 / weightp=2 / keyint=240 / keyint_min=24 / scenecut=40 / intra_refresh=0 / rc_lookahead=50 / rc=2pass / mbtree=1 / bitrate=5665 / ratetol=1.0 / qcomp=0.60 / qpmin=0 / qpmax=69 / qpstep=4 / cplxblur=20.0 / qblur=0.5 / ip_ratio=1.40 / aq=1:1.00
Language : English
Default : Yes
Forced : No

Audio
ID : 2
Format : DTS
Format/Info : Digital Theater Systems
Mode : 16
Format settings, Endianness : Big
Codec ID : A_DTS
Duration : 1 h 49 min
Bit rate mode : Constant
Bit rate : 1 509 kb/s
Channel(s) : 6 channels
Channel positions : Front: L C R, Side: L R, LFE
Sampling rate : 48.0 kHz
Frame rate : 93.750 FPS (512 spf)
Bit depth : 24 bits
Compression mode : Lossy
Stream size : 1.15 GiB (21%)
Language : German
Default : Yes
Forced : No

Text
ID : 3
Format : UTF-8
Codec ID : S_TEXT/UTF8
Codec ID/Info : UTF-8 Plain Text
Duration : 1 h 42 min
Bit rate : 45 b/s
Count of elements : 929
Stream size : 34.1 KiB (0%)
Title : English
Language : English
Default : Yes
Forced : Yes

Menu
00:00:00.000 : en:00:00:00.000
00:10:05.708 : en:00:10:05.708
00:18:15.833 : en:00:18:15.833
00:27:23.750 : en:00:27:23.750
00:36:15.458 : en:00:36:15.458
00:44:57.792 : en:00:44:57.792
00:53:23.125 : en:00:53:23.125
01:00:46.792 : en:01:00:46.792
01:11:01.125 : en:01:11:01.125
01:17:42.167 : en:01:17:42.167
01:26:57.792 : en:01:26:57.792
01:35:56.458 : en:01:35:56.458
01:44:21.833 : en:01:44:21.833


General
egon.schiele.death.and.the.maiden.2016.1080p.bluray.x264-bipolar.mkv
Format : Matroska
Format version : Version 4 / Version 2
File size : 7.65 GiB
Duration : 1 h 49 min
Overall bit rate : 10.0 Mb/s
Encoded date : UTC 2018-10-18 06:15:13
Writing application : mkvmerge v8.5.1 ('Where you lead I will follow') 64bit
Writing library : libebml v1.3.3 + libmatroska v1.4.4

Video
ID : 1
Format : AVC
Format/Info : Advanced Video Codec
Format profile : High@L4.1
Format settings, CABAC : Yes
Format settings, ReFrames : 5 frames
Codec ID : V_MPEG4/ISO/AVC
Duration : 1 h 49 min
Bit rate : 8 538 kb/s
Width : 1 920 pixels
Height : 808 pixels
Display aspect ratio : 2.40:1
Frame rate mode : Constant
Frame rate : 24.000 FPS
Color space : YUV
Chroma subsampling : 4:2:0
Bit depth : 8 bits
Scan type : Progressive
Bits/(Pixel*Frame) : 0.229
Stream size : 6.49 GiB (85%)
Writing library : x264 core 155 r2901 7d0ff22
Encoding settings : cabac=1 / ref=5 / deblock=1:-3:-3 / analyse=0x3:0x133 / me=umh / subme=9 / psy=1 / psy_rd=1.00:0.00 / mixed_ref=1 / me_range=16 / chroma_me=1 / trellis=2 / 8x8dct=1 / cqm=0 / deadzone=21,11 / fast_pskip=0 / chroma_qp_offset=-2 / threads=25 / lookahead_threads=2 / sliced_threads=0 / nr=0 / decimate=1 / interlaced=0 / bluray_compat=0 / constrained_intra=0 / bframes=3 / b_pyramid=2 / b_adapt=1 / b_bias=0 / direct=3 / weightb=1 / open_gop=0 / weightp=2 / keyint=240 / keyint_min=24 / scenecut=40 / intra_refresh=0 / rc_lookahead=50 / rc=2pass / mbtree=1 / bitrate=8538 / ratetol=1.0 / qcomp=0.60 / qpmin=0 / qpmax=69 / qpstep=4 / cplxblur=20.0 / qblur=0.5 / ip_ratio=1.40 / aq=1:1.00
Language : English
Default : Yes
Forced : No

Audio
ID : 2
Format : DTS
Format/Info : Digital Theater Systems
Mode : 16
Format settings, Endianness : Big
Codec ID : A_DTS
Duration : 1 h 49 min
Bit rate mode : Constant
Bit rate : 1 509 kb/s
Channel(s) : 6 channels
Channel positions : Front: L C R, Side: L R, LFE
Sampling rate : 48.0 kHz
Frame rate : 93.750 FPS (512 spf)
Bit depth : 24 bits
Compression mode : Lossy
Stream size : 1.15 GiB (15%)
Language : German
Default : Yes
Forced : No

Text
ID : 3
Format : UTF-8
Codec ID : S_TEXT/UTF8
Codec ID/Info : UTF-8 Plain Text
Duration : 1 h 42 min
Bit rate : 45 b/s
Count of elements : 929
Stream size : 34.1 KiB (0%)
Title : English
Language : English
Default : Yes
Forced : Yes

Menu
00:00:00.000 : en:00:00:00.000
00:10:05.708 : en:00:10:05.708
00:18:15.833 : en:00:18:15.833
00:27:23.750 : en:00:27:23.750
00:36:15.458 : en:00:36:15.458
00:44:57.792 : en:00:44:57.792
00:53:23.125 : en:00:53:23.125
01:00:46.792 : en:01:00:46.792
01:11:01.125 : en:01:11:01.125
01:17:42.167 : en:01:17:42.167
01:26:57.792 : en:01:26:57.792
01:35:56.458 : en:01:35:56.458
01:44:21.833 : en:01:44:21.833



BDRip Screenshots

Egon Schiele Death and the Maiden / Egon Schiele: Tod und Mädchen (2016)

Egon Schiele Death and the Maiden / Egon Schiele: Tod und Mädchen (2016)

Egon Schiele Death and the Maiden / Egon Schiele: Tod und Mädchen (2016)


BDRip 720p Screenshots

Egon Schiele Death and the Maiden / Egon Schiele: Tod und Mädchen (2016)

Egon Schiele Death and the Maiden / Egon Schiele: Tod und Mädchen (2016)

Egon Schiele Death and the Maiden / Egon Schiele: Tod und Mädchen (2016)


BDRip 1080p Screenshots

Egon Schiele Death and the Maiden / Egon Schiele: Tod und Mädchen (2016)

Egon Schiele Death and the Maiden / Egon Schiele: Tod und Mädchen (2016)

Egon Schiele Death and the Maiden / Egon Schiele: Tod und Mädchen (2016)


Come Visit My Blog (•‿•)