Elder Island (2016)

Posted By: JohnSmith
Elder Island (2016)

Elder Island (2016)
HDRip | AVI / XviD@1531 kb/s | 720x304 | 1h 20mn | 1 GB | English: MP3, 192 kb/s (2 ch)
WEB-DL 720p | AVI / XviD@3847 kb/s | 1280x536 | 1h 20mn | 2.28 GB | English: MP3, 192 kb/s (2 ch)
WEB-DL 1080p | MKV / AVC@4581 kb/s | 1920x804 | 1h 20mn | 2.64 GB
English: AAC, 117 kb/s (2 ch) | Subtitles: English
Genre: Thriller

Based on the true events revolving around Beaver Island, Michigan, and King James Strang.




General
Complete name : E:\Elder.Island.2016.WEB-DL.XviD.MP3-FGT.avi
Format : AVI
Format/Info : Audio Video Interleave
File size : 999 MiB
Duration : 1 h 20 min
Overall bit rate : 1 736 kb/s
Movie name : Elder.Island.2016.WEB-DL.XviD.MP3-FGT
Writing library : VirtualDub build 35491/release
Comment : Elder.Island.2016.WEB-DL.XviD.MP3-FGT

Video
ID : 0
Format : MPEG-4 Visual
Format profile : Simple@L5
Format settings, BVOP : No
Format settings, QPel : No
Format settings, GMC : No warppoints
Format settings, Matrix : Default (H.263)
Codec ID : XVID
Codec ID/Hint : XviD
Duration : 1 h 20 min
Bit rate : 1 531 kb/s
Width : 720 pixels
Height : 304 pixels
Display aspect ratio : 2.40:1
Frame rate : 23.976 FPS
Color space : YUV
Chroma subsampling : 4:2:0
Bit depth : 8 bits
Scan type : Progressive
Compression mode : Lossy
Bits/(Pixel*Frame) : 0.292
Stream size : 882 MiB (88%)
Writing library : Lavc57.16.101

Audio
ID : 1
Format : MPEG Audio
Format version : Version 1
Format profile : Layer 3
Mode : Joint stereo
Mode extension : MS Stereo
Codec ID : 55
Codec ID/Hint : MP3
Duration : 1 h 20 min
Bit rate mode : Constant
Bit rate : 192 kb/s
Channel(s) : 2 channels
Sampling rate : 48.0 kHz
Compression mode : Lossy
Stream size : 111 MiB (11%)
Alignment : Aligned on interleaves
Interleave, duration : 24 ms (0.58 video frame)
Interleave, preload duratio : 504 ms
Writing library : LAME3.99.5





General
Complete name : E:\Elder.Island.2016.720p.WEB-DL.XviD.MP3-FGT.avi
Format : AVI
Format/Info : Audio Video Interleave
Format profile : OpenDML
File size : 2.28 GiB
Duration : 1 h 20 min
Overall bit rate : 4 055 kb/s
Movie name : Elder.Island.2016.720p.WEB-DL.XviD.MP3-FGT
Writing library : VirtualDub build 35491/release
Comment : Elder.Island.2016.720p.WEB-DL.XviD.MP3-FGT

Video
ID : 0
Format : MPEG-4 Visual
Format profile : Simple@L5
Format settings, BVOP : No
Format settings, QPel : No
Format settings, GMC : No warppoints
Format settings, Matrix : Default (H.263)
Codec ID : XVID
Codec ID/Hint : XviD
Duration : 1 h 20 min
Bit rate : 3 847 kb/s
Width : 1 280 pixels
Height : 536 pixels
Display aspect ratio : 2.40:1
Frame rate : 23.976 FPS
Color space : YUV
Chroma subsampling : 4:2:0
Bit depth : 8 bits
Scan type : Progressive
Compression mode : Lossy
Bits/(Pixel*Frame) : 0.234
Stream size : 2.16 GiB (95%)
Writing library : Lavc57.24.102

Audio
ID : 1
Format : MPEG Audio
Format version : Version 1
Format profile : Layer 3
Mode : Joint stereo
Mode extension : MS Stereo
Codec ID : 55
Codec ID/Hint : MP3
Duration : 1 h 20 min
Bit rate mode : Constant
Bit rate : 192 kb/s
Channel(s) : 2 channels
Sampling rate : 48.0 kHz
Compression mode : Lossy
Stream size : 111 MiB (5%)
Alignment : Aligned on interleaves
Interleave, duration : 24 ms (0.58 video frame)
Interleave, preload duratio : 504 ms
Writing library : LAME3.99.5





General
Unique ID : 180917107426695084771158985595123673620 (0x881B5E1227478D78B4323A01876C2A14)
Complete name : E:\Elder.Island.2016.1080p.WEB-DL.AAC2.0.H264-FGT.mkv
Format : Matroska
Format version : Version 4 / Version 2
File size : 2.64 GiB
Duration : 1 h 20 min
Overall bit rate : 4 701 kb/s
Movie name : Elder.Island.2016.1080p.WEB-DL.AAC2.0.H264-FGT
Encoded date : UTC 2017-02-07 11:03:38
Writing application : mkvmerge v9.6.0 ('Slave To Your Mind') 64bit
Writing library : libebml v1.3.4 + libmatroska v1.4.5
Cover : Yes
Attachments : small_cover.jpg / small_cover_land.jpg / cover.jpg / cover_land.jpg

Video
ID : 1
Format : AVC
Format/Info : Advanced Video Codec
Format profile : High@L4
Format settings, CABAC : Yes
Format settings, ReFrames : 5 frames
Codec ID : V_MPEG4/ISO/AVC
Duration : 1 h 20 min
Width : 1 920 pixels
Height : 804 pixels
Display aspect ratio : 2.40:1
Frame rate mode : Constant
Frame rate : 23.976 FPS
Color space : YUV
Chroma subsampling : 4:2:0
Bit depth : 8 bits
Scan type : Progressive
Title : Elder.Island.2016.1080p.WEB-DL.AAC2.0.H264-FGT
Language : English
Default : Yes
Forced : No
Color range : Limited
Color primaries : BT.709
Transfer characteristics : BT.709
Matrix coefficients : BT.709

Audio
ID : 2
Format : AAC
Format/Info : Advanced Audio Codec
Format profile : LC
Codec ID : A_AAC
Duration : 1 h 20 min
Channel(s) : 2 channels
Channel positions : Front: L R
Sampling rate : 48.0 kHz
Frame rate : 46.875 FPS (1024 spf)
Compression mode : Lossy
Title : Elder.Island.2016.1080p.WEB-DL.AAC2.0.H264-FGT
Language : English
Default : Yes
Forced : No

Text
ID : 3
Format : UTF-8
Codec ID : S_TEXT/UTF8
Codec ID/Info : UTF-8 Plain Text
Language : English
Default : Yes
Forced : No

Menu
00:00:00.000 : en:1
00:12:18.738 : en:2
00:24:31.470 : en:3
00:36:40.198 : en:4
00:46:58.316 : en:5
00:56:19.377 : en:6
01:06:19.602 : en:7
01:14:03.440 : en:8




Screenshots HDRip

Elder Island (2016)

Elder Island (2016)

Elder Island (2016)


Screenshots WEB-DL 720p

Elder Island (2016)

Elder Island (2016)

Elder Island (2016)


Screenshots WEB-DL 1080p

Elder Island (2016)

Elder Island (2016)

Elder Island (2016)