Tags
Language
Tags

Terranoa - Expedition Antarctica: Series 1 (2016)

Posted By: Tutorial
720p (HD) / HDTV
Terranoa - Expedition Antarctica: Series 1 (2016)

Terranoa - Expedition Antarctica: Series 1 (2016)
HDTV | 1920 x 1080 | .MP4/AVC @ 4610 Kbps | 2x~49mn | 3.52 GB
Audio: English AAC 160 Kbps, 2 channels | Subs: English
Genre: Documentary

Experience the hardships of one of the deepest dive ever made in the South Arctic.

Part 1: Living on the Edge
An expedition which will help viewers decipher Antarctica's key role in climate regulation and see the challenges the iconic Emperor penguin faces in the light of climate change. Discover the secrets of these polar environments on the ice and underwater and get close and personal with the emperor.


Part 2: Antarcticas Secrets
Following extreme diver and biologists Laurent Ballesta and acclaimed photographer Vincent Munier, exploring for the first time sub-glacial lakes deep under the ice pack and decoding the secret weapons of wildlife and micro-organic life thriving under such extreme conditions.

General
Complete name Expedition.Antarctica.Series.1.1of2.Living.on.the.Edge.mp4
Format : MPEG-4
Format profile : Base Media
Codec ID : isom (isom)
File size : 1.63 GiB
Duration : 48 min 54 s
Overall bit rate mode : Variable
Overall bit rate : 4 772 kb/s
Encoded date : UTC 2019-02-14 21:28:16
Tagged date : UTC 2019-02-14 21:28:16
Writing application : My MP4Box GUI 0.6.0.6

Video
ID : 1
Format : AVC
Format/Info : Advanced Video Codec
Format profile : High@L4.1
Format settings, CABAC : No
Format settings, ReFrames : 1 frame
Format settings, GOP : M=1, N=12
Codec ID : avc1
Codec ID/Info : Advanced Video Coding
Duration : 48 min 54 s
Bit rate : 4 610 kb/s
Maximum bit rate : 27.1 Mb/s
Width : 1 920 pixels
Height : 1 080 pixels
Display aspect ratio : 16:9
Frame rate mode : Constant
Frame rate : 29.970 (30000/1001) FPS
Color space : YUV
Chroma subsampling : 4:2:0
Bit depth : 8 bits
Scan type : Progressive
Bits/(Pixel*Frame) : 0.074
Stream size : 1.57 GiB (97%)
Title : Expedition.Antarctica.Series.1.1of2.Living.on.the.Edge.1080p.HDTV.x264.AAC.org.mp4
Encoded date : UTC 2019-02-14 16:30:49
Tagged date : UTC 2019-02-14 21:29:15

Audio
ID : 2
Format : AAC
Format/Info : Advanced Audio Codec
Format profile : LC
Codec ID : 40
Duration : 48 min 54 s
Bit rate mode : Variable
Bit rate : 160 kb/s
Maximum bit rate : 221 kb/s
Channel(s) : 2 channels
Channel positions : Front: L R
Sampling rate : 48.0 kHz
Frame rate : 46.875 FPS (1024 spf)
Compression mode : Lossy
Stream size : 55.9 MiB (3%)
Title : Expedition.Antarctica.Series.1.1of2.Living.on.the.Edge.1080p.HDTV.x264.AAC..org.mp4
Language : English
Encoded date : UTC 2019-02-14 21:29:07
Tagged date : UTC 2019-02-14 21:29:15

Text
ID : 3
Format : Timed Text
Codec ID : tx3g
Duration : 48 min 20 s
Bit rate mode : Variable
Bit rate : 88 b/s
Stream size : 31.2 KiB (0%)
Title : Expedition.Antarctica.Series.1.1of2.Living.on.the.Edge.1080p.HDTV.x264.AAC..org.srt
Forced : No
Encoded date : UTC 2019-02-14 21:29:15
Tagged date : UTC 2019-02-14 21:29:15
Screenshots

Terranoa - Expedition Antarctica: Series 1 (2016)

Terranoa - Expedition Antarctica: Series 1 (2016)

Terranoa - Expedition Antarctica: Series 1 (2016)

Welcome to my blog - daily update!