Tags
Language
Tags

Discovery Plus - Expedition: Deep Ocean Series 1 (2021)

Posted By: Tutorial
1080p (FullHD) / HDTV
Discovery Plus - Expedition: Deep Ocean Series 1 (2021)

Discovery Plus - Expedition: Deep Ocean Series 1 (2021)
HDTV | 1920 x 1080 | .MP4/AVC @ 4502 Kbps | 5x~41mn | 6.79 GB
Audio: English AAC 161 Kbps, 2 channels | Subs: English
Genre: Documentary

Explorer Victor Vescovo and his team embark on an unprecedented global mission to dive to the deepest points of all five oceans, a feat no one has ever achieved.

Part 1: Atlantic Ocean
Victor Vescovo's team searches for the deepest point of the Atlantic Ocean.


Part 2: Southern Ocean
Victor Vescovo's team searches for the deepest point of the Southern Ocean.


Part 3: Indian Ocean
Explorer Victor Vescovo and his team head to the Indian Ocean.


Part 4: Pacific Ocean
Victor Vescovo's team takes on the Mariana Trench in the Pacific Ocean.


Part 5: Arctic Ocean
Victor Vescovo's team concludes their mission in the Arctic Victor Vescovo's team concludes their mission in the Arctic Ocean..

General
Complete name : Expedition.Deep.Ocean.Series.1.1of5.Atlantic.Ocean.mp4
Format : MPEG-4
Format profile : Base Media
Codec ID : isom (isom)
File size : 1.36 GiB
Duration : 41 min 41 s
Overall bit rate mode : Variable
Overall bit rate : 4 666 kb/s
Encoded date : UTC 2021-04-05 13:16:15
Tagged date : UTC 2021-04-05 13:16:15

Video
ID : 1
Format : AVC
Format/Info : Advanced Video Codec
Format profile : High@L4.1
Format settings : CABAC / 4 Ref Frames
Format settings, CABAC : Yes
Format settings, Reference frames : 4 frames
Codec ID : avc1
Codec ID/Info : Advanced Video Coding
Duration : 41 min 41 s
Bit rate : 4 502 kb/s
Maximum bit rate : 11.1 Mb/s
Width : 1 920 pixels
Height : 1 080 pixels
Display aspect ratio : 16:9
Frame rate mode : Constant
Frame rate : 29.970 (30000/1001) FPS
Standard : Component
Color space : YUV
Chroma subsampling : 4:2:0
Bit depth : 8 bits
Scan type : Progressive
Bits/(Pixel*Frame) : 0.072
Stream size : 1.31 GiB (96%)
Title : Expedition.Deep.Ocean.Series.1.1of5.Atlantic.Ocean.1080p.HDTV.x264.AAC..org.mp4
Language : English
Tagged date : UTC 2021-04-05 13:17:09
Color range : Limited
Codec configuration box : avcC

Audio
ID : 2
Format : AAC LC
Format/Info : Advanced Audio Codec Low Complexity
Codec ID : mp4a-40-2
Duration : 41 min 41 s
Bit rate mode : Variable
Bit rate : 161 kb/s
Maximum bit rate : 209 kb/s
Channel(s) : 2 channels
Channel layout : L R
Sampling rate : 48.0 kHz
Frame rate : 46.875 FPS (1024 SPF)
Compression mode : Lossy
Stream size : 47.9 MiB (3%)
Title : Expedition.Deep.Ocean.Series.1.1of5.Atlantic.Ocean.1080p.HDTV.x264.AAC..org.mp4
Language : English
Encoded date : UTC 2021-04-05 13:16:45
Tagged date : UTC 2021-04-05 13:17:09

Text
ID : 3
Format : Timed Text
Codec ID : tx3g
Duration : 41 min 29 s
Bit rate mode : Variable
Bit rate : 137 b/s
Stream size : 41.7 KiB (0%)
Title : Expedition.Deep.Ocean.Series.1.1of5.Atlantic.Ocean.1080p.HDTV.x264.AAC..org.srt
Forced : No
Encoded date : UTC 2021-04-05 13:17:09
Tagged date : UTC 2021-04-05 13:17:09
Screenshots

Discovery Plus - Expedition: Deep Ocean Series 1 (2021)

Discovery Plus - Expedition: Deep Ocean Series 1 (2021)

Discovery Plus - Expedition: Deep Ocean Series 1 (2021)

Welcome to my blog - daily update!

Discovery Plus - Expedition: Deep Ocean Series 1 (2021)